ML
     
  Уважаемый Гость!
Вы можете поддержать проект и зарегистрироваться у наших партнеров - онлайн-стратегия MyLands. При регистрации в игре Вы получите код, который сможете активировать после регистрации на pirat.ca и получить 1000 дублонов.

Ваш код:
a978488e62322cd72e113ab723b8a7fdc10eb9b9
 
     

Наградить посмертно (Борис Григорьев) [1986 г., военный, детектив, DVDRip]

Ответить на тему
 
Автор
Сообщение

Пост 25-Фев-2015 15:09

[Q] 

Мархуз

-Наградить посмертно-- Производство: СССР, Киностудия им. М. Горького
Режиссер: Борис Григорьев
Жанр: военный, детектив
Год выпуска: 1986 г.
Продолжительность: 01:23:10
В ролях: Александр Тимошкин, Евгений Леонов-Гладышев, Михаил Жигалов, Марина Яковлева, Владимир Стеклов, Георгий Юматов, Юрий Катин-Ярцев, Георгий Дрозд, Марина Левтова, Владимир Сичкарь, Ян Янакиев, Алексей Локтев и другие-Описание: Фронтовой разведчик Юрий Соснин получил тяжелое ранение, следствием которого явилась полная потеря памяти. Командование посчитало его погибшим и представило к награде (посмертно). Выписавшись из госпиталя, он случайно попал в поле зрения воровской шайки, которая, используя его беспамятство, втянула героя-разведчика в водоворот криминальных событий. По следу преступников идут работники уголовного розыска. И лишь случайный эпизод при дерзком ограблении инкассаторов меняет всю его жизнь... Бывший однополчанин и друг помогает Юрию постепенно, шаг за шагом вспомнить свою прошлую жизнь и героически перечеркнуть криминальное настоящее...-Качество видео: DVDRip
Контейнер: AVI
Видео кодек: XviD
Аудио кодек: MP3
Видео: 720x400; 887 kbps; 25 fps; 0.123 bit/pixel
Аудио: 192 kbps; 2 ch; 48 kHz
Cубтитры: отсутствуют
General
Complete name : D:\Torrent\Nagradit_posmertno_[Pirat.ca].torrent.avi
Format : AVI
Format/Info : Audio Video Interleave
File size : 639 MiB
Duration : 1h 22mn
Overall bit rate : 1 089 Kbps
Writing application : VirtualDubMod 1.5.4.1 (build 2178/release)
Writing library : VirtualDub build 35390/release
Video
ID : 0
Format : MPEG-4 Visual
Format profile : Advanced [email protected]
Format settings, BVOP : 2
Format settings, QPel : No
Format settings, GMC : No warppoints
Format settings, Matrix : Default (H.263)
Muxing mode : Packed bitstream
Codec ID : XVID
Codec ID/Hint : XviD
Duration : 1h 22mn
Bit rate : 887 Kbps
Width : 720 pixels
Height : 400 pixels
Display aspect ratio : 16:9
Frame rate : 25.000 fps
Color space : YUV
Chroma subsampling : 4:2:0
Bit depth : 8 bits
Scan type : Progressive
Compression mode : Lossy
Bits/(Pixel*Frame) : 0.123
Stream size : 521 MiB (81%)
Writing library : XviD 64
Audio
ID : 1
Format : AC-3
Format/Info : Audio Coding 3
Mode extension : CM (complete main)
Format settings, Endianness : Big
Codec ID : 2000
Duration : 1h 22mn
Bit rate mode : Constant
Bit rate : 192 Kbps
Channel(s) : 2 channels
Channel positions : Front: L R
Sampling rate : 48.0 KHz
Bit depth : 16 bits
Compression mode : Lossy
Stream size : 113 MiB (18%)
Alignment : Split accross interleaves
Interleave, duration : 40 ms (1.00 video frame)
Interleave, preload duratio : 500 ms

Раздача с 14.00 до 2.00 (время московское)
Download / Скачать

Хотите скачать бесплатно? Зарегистрируйтесь на сайте (ссылка на регистрацию). Pirat.ca - самый быстрый торрент трекер в рунете!

Как скачивать  ·   Что такое торрент  ·   Рейтинг и ограничения

Пост 25-Фев-2015 17:28 (спустя 2 часа 19 минут)

Топик был перенесен из форума Наше кино (Трюм) в форум Советское кино
aleksey99
 

Семен

Морской Волк

Пост 25-Мар-2015 21:08 (спустя 1 месяц)

[Q] 

Сильный фильм. И снят отлично! Спасибо!!!
[Профиль]  [ЛС] 

xzxscorpxzx

Флибустьер

Пост 11-Фев-2016 12:33 (спустя 10 месяцев 16 дней)

[Q] 

отличный фильм!
[Профиль]  [ЛС] 
Показать сообщения:    
Ответить на тему

Текущее время: Сегодня 22:08

Часовой пояс: GMT + 4



Вы не можете начинать темы
Вы не можете отвечать на сообщения
Вы не можете редактировать свои сообщения
Вы не можете удалять свои сообщения
Вы не можете голосовать в опросах
Вы не можете прикреплять файлы к сообщениям
Вы не можете скачивать файлы

▼ Вниз