ML
     
  Уважаемый Гость!
Вы можете поддержать проект и зарегистрироваться у наших партнеров - онлайн-стратегия MyLands. При регистрации в игре Вы получите код, который сможете активировать после регистрации на pirat.ca и получить 1000 дублонов.

Ваш код:
a978488e62322cd72e113ab723b8a7fdc10eb9b9
 
     

Тайна двух океанов (Константин Пипинашвили) [1956 г., фантастика, приключения, DVDRip]

Ответить на тему
 
Автор
Сообщение

Пост 26-Фев-2015 14:51

[Q] 

Мархуз

-Тайна двух океанов-- Производство: СССР, «Грузия-фильм»
Режиссер: Константин Пипинашвили
Жанр: фантастика, приключения
Год выпуска: 1956 г.
Продолжительность: 01:36:42
В ролях: Сергей Столяров,Игорь Владимиров, Сергей Голованов, Петр Соболевский, Вахтанг Нинуа, Сергей Комаров, Антонина Максимова, Леонид Пирогов, Троадий Добротворский, Павел Луспекаев-Описание: В послевоенные годы в Атлантическом океане при загадочных обстоятельствах погибает советский теплоход «Арктика». Одновременно в Тихом океане взрывается французский теплоход «Виктуар». Советскому экипажу хорошо оснащенной подводной лодки «Пионер» предстоит выяснить причину гибели двух теплоходов…-Качество видео: DVDRip
Контейнер: AVI
Видео кодек: XviD
Аудио кодек: AC3
Видео: 704x528; 1948 kbps; 25 fps; 0.210 bit/pixel
Аудио: 192 kbps; 2 ch; 48 kHz
Cубтитры: отсутствуют
1956 г. - Диплом за высокую технику производства и разработку научно-фантастического сюжета на МКФ в Дамаске
General
Complete name : D:\Torrent\Tajna_dvuh_okeanov_[Pirat.ca].torrent.avi
Format : AVI
Format/Info : Audio Video Interleave
File size : 1.45 GiB
Duration : 1h 36mn
Overall bit rate : 2 149 Kbps
Writing application : VirtualDubMod 1.5.10.3 | www.virtualdub-fr.org || (build 2550/release)
Writing library : VirtualDubMod build 2550/release
Video
ID : 0
Format : MPEG-4 Visual
Format profile : Advanced [email protected]
Format settings, BVOP : 1
Format settings, QPel : No
Format settings, GMC : No warppoints
Format settings, Matrix : Custom
Codec ID : XVID
Codec ID/Hint : XviD
Duration : 1h 36mn
Bit rate : 1 948 Kbps
Width : 704 pixels
Height : 528 pixels
Display aspect ratio : 4:3
Frame rate : 25.000 fps
Color space : YUV
Chroma subsampling : 4:2:0
Bit depth : 8 bits
Scan type : Progressive
Compression mode : Lossy
Bits/(Pixel*Frame) : 0.210
Stream size : 1.32 GiB (91%)
Writing library : XviD 65
Audio
ID : 1
Format : AC-3
Format/Info : Audio Coding 3
Mode extension : CM (complete main)
Format settings, Endianness : Big
Codec ID : 2000
Duration : 1h 36mn
Bit rate mode : Constant
Bit rate : 192 Kbps
Channel(s) : 2 channels
Channel positions : Front: L R
Sampling rate : 48.0 KHz
Bit depth : 16 bits
Compression mode : Lossy
Stream size : 132 MiB (9%)
Alignment : Split accross interleaves
Interleave, duration : 40 ms (1.00 video frame)
Interleave, preload duratio : 500 ms

Раздача с 14.00 до 2.00 (время московское)
Download / Скачать

Хотите скачать бесплатно? Зарегистрируйтесь на сайте (ссылка на регистрацию). Pirat.ca - самый быстрый торрент трекер в рунете!

Как скачивать  ·   Что такое торрент  ·   Рейтинг и ограничения

Пост 26-Фев-2015 15:53 (спустя 1 час 2 минуты)

Топик был перенесен из форума Наше кино (Трюм) в форум Советское кино
aleksey99
 

ANRI63

Шкипер

Пост 27-Фев-2015 13:11 (спустя 22 часа)

[Q] 

Хреновая озвучка. Содрано с немецкой копии. Постоянно появляются то немецкие субтитры, то персонажи периодически начинают разговаривать на немецком языке.
Лучше поискать на других сайтах более качественную копию.
А эта ещё оказывается и "кастрирована" почти на час.
[Профиль]  [ЛС] 

Семен

Морской Волк

Пост 25-Мар-2015 20:47 (спустя 26 дней)

[Q] 

Прекрасный фильм! Стоит посмотреть Спасибо!!!
[Профиль]  [ЛС] 
Показать сообщения:    
Ответить на тему

Текущее время: Сегодня 22:10

Часовой пояс: GMT + 4



Вы не можете начинать темы
Вы не можете отвечать на сообщения
Вы не можете редактировать свои сообщения
Вы не можете удалять свои сообщения
Вы не можете голосовать в опросах
Вы не можете прикреплять файлы к сообщениям
Вы не можете скачивать файлы

▼ Вниз