ML
     
  Уважаемый Гость!
Вы можете поддержать проект и зарегистрироваться у наших партнеров - онлайн-стратегия MyLands. При регистрации в игре Вы получите код, который сможете активировать после регистрации на pirat.ca и получить 1000 дублонов.

Ваш код:
ca44e9295b9b8527ba1c339c20494f70782efea6
 
     

Дело Румянцева (Иосиф Хейфиц) [1955 г., детектив, DVDRip]

Ответить на тему
 
Автор
Сообщение

Пост 26-Мар-2015 15:07

[Q] 

Мархуз

-Дело Румянцева-- Производство: Киностудия «Ленфильм»
Режиссер: Иосиф Хейфиц
Жанр: детектив
Год выпуска: 1955 г.
Продолжительность: 01:37:07
В ролях: Алексей Баталов, Нелли Подгорная, Сергей Лукьянов, Геннадий Юхтин, Владимир Лепко, Евгений Леонов, Николай Крючков, Виктор Чекмарев, Петр Лобанов, Антс Эскола-Описание: Начальник автобазы, связанный с бандой спекулянтов, посылает ничего не подозревающего Румянцева в рейс с краденым грузом. В дороге шофера арестовывают и сажают в тюрьму. Чтобы замести следы, истинные преступники делают так, что вся тяжесть преступления ложится на Румянцева. Подозрительный и бездушный капитан милиции не в состоянии найти подлинных преступников. И тогда дело Румянцева переходит в руки умного и опытного полковника.-Качество видео: DVDRip
Контейнер: AVI
Видео кодек: XviD
Аудио кодек: AC3
Видео: 720x512; 1946 kbps; 25 fps; 0.211 bit/pixel
Аудио: 192 kbps; 2 ch; 48 kHz
Cубтитры: отсутствуют
General
Complete name : D:\Torrent\Delo_Rumyanceva_[Pirat.ca].torrent.avi
Format : AVI
Format/Info : Audio Video Interleave
File size : 1.46 GiB
Duration : 1h 37mn
Overall bit rate : 2 148 Kbps
Writing application : VirtualDubMod 1.5.10.2 (build 2542/release)
Writing library : VirtualDubMod build 2542/release
Video
ID : 0
Format : MPEG-4 Visual
Format profile : Advanced [email protected]
Format settings, BVOP : 2
Format settings, QPel : No
Format settings, GMC : No warppoints
Format settings, Matrix : Default (MPEG)
Muxing mode : Packed bitstream
Codec ID : XVID
Codec ID/Hint : XviD
Duration : 1h 37mn
Bit rate : 1 946 Kbps
Width : 720 pixels
Height : 512 pixels
Display aspect ratio : 1.406
Frame rate : 25.000 fps
Color space : YUV
Chroma subsampling : 4:2:0
Bit depth : 8 bits
Scan type : Progressive
Compression mode : Lossy
Bits/(Pixel*Frame) : 0.211
Stream size : 1.32 GiB (91%)
Writing library : XviD 1.2.1 (UTC 2008-12-04)
Audio
ID : 1
Format : AC-3
Format/Info : Audio Coding 3
Mode extension : CM (complete main)
Format settings, Endianness : Big
Codec ID : 2000
Duration : 1h 37mn
Bit rate mode : Constant
Bit rate : 192 Kbps
Channel(s) : 2 channels
Channel positions : Front: L R
Sampling rate : 48.0 KHz
Bit depth : 16 bits
Compression mode : Lossy
Stream size : 133 MiB (9%)
Alignment : Split accross interleaves
Interleave, duration : 40 ms (1.00 video frame)
Interleave, preload duration : 500 ms

Раздача с 14.00 до 2.00 (время московское)
Download / Скачать

Хотите скачать бесплатно? Зарегистрируйтесь на сайте (ссылка на регистрацию). Pirat.ca - самый быстрый торрент трекер в рунете!

Как скачивать  ·   Что такое торрент  ·   Рейтинг и ограничения

Пост 26-Мар-2015 15:34 (спустя 26 минут)

Топик был перенесен из форума Наше кино (Трюм) в форум Советское кино
aleksey99
 

litti

Флибустьер

Пост 27-Мар-2015 00:39 (спустя 9 часов)

[Q] 

Хороший фильм.

_________________
Маньяком быть ты не обязан,
но сексуальным должен быть...
[Профиль]  [ЛС] 

ZhekasCat

Морской Волк

35

Пост 20-Фев-2016 02:39 (спустя 10 месяцев 24 дня)

[Q] 

Один из самых хороших фильмов с Баталовым. Спасибо!!!
[Профиль]  [ЛС] 
Показать сообщения:    
Ответить на тему

Текущее время: Сегодня 16:17

Часовой пояс: GMT + 4



Вы не можете начинать темы
Вы не можете отвечать на сообщения
Вы не можете редактировать свои сообщения
Вы не можете удалять свои сообщения
Вы не можете голосовать в опросах
Вы не можете прикреплять файлы к сообщениям
Вы не можете скачивать файлы

▼ Вниз