ML
     
  Уважаемый Гость!
Вы можете поддержать проект и зарегистрироваться у наших партнеров - онлайн-стратегия MyLands. При регистрации в игре Вы получите код, который сможете активировать после регистрации на pirat.ca и получить 1000 дублонов.

Ваш код:
193c38d0130f05c24de871678ea3ac181461757d
 
     

Дважды рожденный (Аркадий Сиренко) [1983 г., драма, военный, DVDRip]

Ответить на тему
 
Автор
Сообщение

Пост 27-Мар-2015 03:29

[Q] 

Элез

Флибустьер

-Дважды рожденный-- Производство: СССР
Режиссер: Аркадий Сиренко
Жанр: драма, военный
Год выпуска: 1983 г.
Продолжительность: 01:20:36
Премьера мировая: 21 мая 1984
Дата выхода DVD: 31 марта 2009, «Мастер Тэйп»
В ролях: Сергей Пижель, Татьяна Догилева, Геннадий Корольков, Виктор Мирошниченко, Юрий Назаров, Нина Русланова, Вячеслав Баранов, Сергей Плотников (II), Эдуард Бочаров, Сергей Юртайкин, Николай Кочегаров, Лидия Ежевская, Валентина Хмара-Описание: События происходят в Белом море, 1942 год. Новобранец Андрей Булыгин назначен помощником пулеметчика на небольшое судно, доставляющее на линию фронта бойцов и вооружение. На обратном пути немецкие истребители топят корабль, в живых остается только Андрей.
Выбравшись на лед, он вступает в неравную схватку с холодом и атакующим его с воздуха немецким летчиком фон Бетгером…
-Качество видео: DVDRip
Контейнер: AVI
Видео кодек: XviD
Аудио кодек: AC3
Видео: MPEG-4 Visual at 2030 Кбит/сек : 576 x 448 at 25.000 fps Бит/Пиксели*Кадры : 0.315
Аудио: AC-3 at 384 Кбит/сек : 2 канала, 48,0 КГц
Cубтитры: отсутствуют
Общее
Полное имя : D:\Раздача\загрузки\Дважды рожденный...avi
Формат : AVI
Формат/Информация : Audio Video Interleave
Размер файла : 1,36 Гбайт
Продолжительность : 1 ч. 20 м.
Общий поток : 2423 Кбит/сек
Программа кодирования : VirtualDubMod 1.5.10.2 (build 2540/release)
Библиотека кодирования : VirtualDubMod build 2540/release
Видео
Идентификатор : 0
Формат : MPEG-4 Visual
Профиль формата : Advanced [email protected]
Параметр BVOP формата : 1
Параметр QPel формата : Нет
Параметр GMC формата : Без точки перехода
Параметр матрицы формата : Default (MPEG)
Режим смешивания : Сжатый битовый поток
Идентификатор кодека : XVID
Идентификатор кодека/Подсказка : XviD
Продолжительность : 1 ч. 20 м.
Битрейт : 2030 Кбит/сек
Ширина : 576 пикселей
Высота : 448 пикселей
Соотношение сторон : 1,286
Частота кадров : 25,000 кадров/сек
Цветовое пространство : YUV
Субдискретизация насыщенности : 4:2:0
Битовая глубина : 8 бит
Тип развёртки : Прогрессивная
Метод сжатия : С потерями
Бит/(Пиксели*Кадры) : 0.315
Размер потока : 1,14 Гбайт (84%)
Библиотека кодирования : XviD 1.0.3 (UTC 2004-12-20)
Аудио
Идентификатор : 1
Формат : AC-3
Формат/Информация : Audio Coding 3
Расширение режима : CM (complete main)
Параметр Endianness формата : Big
Идентификатор кодека : 2000
Продолжительность : 1 ч. 20 м.
Вид битрейта : Постоянный
Битрейт : 384 Кбит/сек
Каналы : 2 канала
Расположение каналов : Front: L R
Частота : 48,0 КГц
Битовая глубина : 16 бит
Метод сжатия : С потерями
Размер потока : 221 Мбайт (16%)
Выравнивание : Разделение по промежуткам
Продолжительность промежутка : 40 мс. (1,00 видеокадр)
Время предзагрузки промежутка : 500 мс.
Download / Скачать

Хотите скачать бесплатно? Зарегистрируйтесь на сайте (ссылка на регистрацию). Pirat.ca - самый быстрый торрент трекер в рунете!

Как скачивать  ·   Что такое торрент  ·   Рейтинг и ограничения

Пост 27-Мар-2015 10:59 (спустя 7 часов)

Топик был перенесен из форума Наше кино (Трюм) в форум Советское кино
kugesan
 

VSN911

Лоцман

Пост 27-Мар-2015 12:27 (спустя 8 часов)

[Q] 

Классный фильм
[Профиль]  [ЛС] 
Показать сообщения:    
Ответить на тему

Текущее время: Сегодня 18:04

Часовой пояс: GMT + 4



Вы не можете начинать темы
Вы не можете отвечать на сообщения
Вы не можете редактировать свои сообщения
Вы не можете удалять свои сообщения
Вы не можете голосовать в опросах
Вы не можете прикреплять файлы к сообщениям
Вы не можете скачивать файлы

▼ Вниз