ML
     
  Уважаемый Гость!
Вы можете поддержать проект и зарегистрироваться у наших партнеров - онлайн-стратегия MyLands. При регистрации в игре Вы получите код, который сможете активировать после регистрации на pirat.ca и получить 1000 дублонов.

Ваш код:
500cb7bd8d2cec9a8aba647a87ce41c4b76f06bd
 
     

Доживём до понедельника (Станислав Ростоцкий) [1968 г., драма, DVDRip]

Ответить на тему
 
Автор
Сообщение

Пост 27-Мар-2015 14:51

[Q] 

Мархуз

-Доживём до понедельника-- Производство: Киностудия им. М. Горького
Режиссер: Станислав Ростоцкий
Жанр: драма
Год выпуска: 1968 г.
Продолжительность: 01:40:14
В ролях: Вячеслав Тихонов, Ирина Печерникова, Ольга Остроумова, Нина Гребешкова, Валентина Телегина, Любовь Соколова, Ольга Жизнева, Михаил Зимин, Людмила Архарова, Нина Меньшикова, Игорь Старыгин, Юрий Чернов, Валерий Зубарев, Софья Пилявская-Описание: Главный герой - учитель истории Мельников - много размышляет, строго и требовательно спрашивает. Ему знакомы и сомнения, и моменты усталости, и неудовлетворенность. И Мельников не всегда прав. Но он борется, ищет, любит, преодолевает трудности и сомнения.-Качество видео: DVDRip
Контейнер: AVI
Видео кодек: DivX
Аудио кодек: AC3
Видео: 720x320; 1632 kbps; 25 fps; 0,283 bit/pixel
Аудио: 448 kbps; 6 ch; 48 kHz
Cубтитры: отсутствуют
1968 год - Лучший фильм по опросу журнала «Советский экран».
1969 год - Главный приз VI Международного кинофестиваля в Москве
1970 год - Государственная премия СССР
General
Complete name : D:\Torrent\Dozhivem_do_ponedelnika_[Pirat.ca].torrent.avi
Format : AVI
Format/Info : Audio Video Interleave
File size : 1.46 GiB
Duration : 1h 40mn
Overall bit rate : 2 089 Kbps
Writing application : VirtualDubModRus 1.5.10.2 (build 2542/release)
Writing library : VirtualDubMod build 2542/release
Video
ID : 0
Format : MPEG-4 Visual
Format settings, BVOP : 1
Format settings, QPel : No
Format settings, GMC : No warppoints
Format settings, Matrix : Default (H.263)
Muxing mode : Packed bitstream
Codec ID : DX50
Codec ID/Hint : DivX 5
Duration : 1h 40mn
Bit rate : 1 632 Kbps
Width : 720 pixels
Height : 320 pixels
Display aspect ratio : 2.25:1
Frame rate : 25.000 fps
Color space : YUV
Chroma subsampling : 4:2:0
Bit depth : 8 bits
Scan type : Progressive
Compression mode : Lossy
Bits/(Pixel*Frame) : 0.283
Stream size : 1.14 GiB (78%)
Writing library : DivX 6.8.3-6.8.4 (UTC 2008-06-07)
Audio
ID : 1
Format : AC-3
Format/Info : Audio Coding 3
Mode extension : CM (complete main)
Format settings, Endianness : Big
Codec ID : 2000
Duration : 1h 40mn
Bit rate mode : Constant
Bit rate : 448 Kbps
Channel(s) : 6 channels
Channel positions : Front: L C R, Side: L R, LFE
Sampling rate : 48.0 KHz
Bit depth : 16 bits
Compression mode : Lossy
Stream size : 321 MiB (21%)
Alignment : Aligned on interleaves
Interleave, duration : 40 ms (1.00 video frame)
Interleave, preload duration : 512 ms

Раздача с 14.00 до 2.00 (время московское)
Download / Скачать

Хотите скачать бесплатно? Зарегистрируйтесь на сайте (ссылка на регистрацию). Pirat.ca - самый быстрый торрент трекер в рунете!

Как скачивать  ·   Что такое торрент  ·   Рейтинг и ограничения

alex11959

Флибустьер

Пост 27-Мар-2015 16:37 (спустя 1 час 45 минут)

[Q] 

Спасибо!!! Вспомнить все!!!!!!!!
[Профиль]  [ЛС] 

ZhekasCat

Морской Волк

35

Пост 20-Фев-2016 02:35 (спустя 10 месяцев 23 дня)

[Q] 

Один из мудрых фильмов Спасибо!!!
[Профиль]  [ЛС] 
Показать сообщения:    
Ответить на тему

Текущее время: Сегодня 01:43

Часовой пояс: GMT + 4



Вы не можете начинать темы
Вы не можете отвечать на сообщения
Вы не можете редактировать свои сообщения
Вы не можете удалять свои сообщения
Вы не можете голосовать в опросах
Вы не можете прикреплять файлы к сообщениям
Вы не можете скачивать файлы

▼ Вниз