ML
     
  Уважаемый Гость!
Вы можете поддержать проект и зарегистрироваться у наших партнеров - онлайн-стратегия MyLands. При регистрации в игре Вы получите код, который сможете активировать после регистрации на pirat.ca и получить 1000 дублонов.

Ваш код:
c89b4b6523eaac3173e9a9c062ac1a19db575961
 
     

Когда деревья были большими (Лев Кулиджанов) [1961 г., Cоциальная мелодрама, DVDRip]

Ответить на тему
 
Автор
Сообщение

Пост 29-Мар-2015 14:41

[Q] 

Мархуз

-Когда деревья были большими-- Производство: СССР. Киностудия им. М. Горького
Режиссер: Лев Кулиджанов
Жанр: Cоциальная мелодрама
Год выпуска: 1961 г.
Продолжительность: 01:29:50
В ролях: Инна Гулая, Юрий Никулин, Леонид Куравлёв, Екатерина Мазурова, Василий Шукшин, Елена Королёва, Людмила Чурсина, Виктор Павлов, Аркадий Трусов, Ия Маркс, Марина (Мария) Гаврилко, Владимир Лебедев, Евгения Мельникова, Данута Столярская, Павел Шальнов, Виталий Ованесов, Георгий Шаповалов, Вера Орлова, Оля Петрова, Галина Биневская, Георгий Шмованов, Борис Юрченко, Надежда Самсонова, Владимир Смирнов-Описание: Кузьма Кузьмич Иорданов воевал, имеет боевые награды, когда-то работал слесарем, но жизнь сложилась так, что, будучи уже человеком немолодым, он остался совсем один. Не работает, пьёт, живёт случайными заработками, совершенно опустился и ведёт, что называется, "антиобщественный образ жизни". Случайно Иорданов узнаёт про одинокую девушку Наташу из деревни Селиваново. Во время войны эшелон, в котором она, годовалая, ехала с родителями, разбомбили как раз около деревни. Девочка потерялась, и ее вырастил колхоз. Кузьма Кузьмич задумывает аферу: он решает уехать из Москвы в Селиваново и выдать себя за отца Наташи...-Качество видео: DVDRip
Контейнер: AVI
Видео кодек: XviD
Аудио кодек: AC3
Видео: 688x512; 2100 kbps; 25 fps;, 0.238 bit/pixel
Аудио: 224 kbps; 2 ch; 48 kHz
Cубтитры: отсутствуют
1962 г. - фильм участвовал в основном конкурсном показе Каннского кинофестиваля.
General
Complete name : D:\Torrent\Kogda_derevya_byli_bolshimi_[Pirat.ca].torrent.avi
Format : AVI
Format/Info : Audio Video Interleave
File size : 1.46 GiB
Duration : 1h 29mn
Overall bit rate : 2 334 Kbps
Writing application : VirtualDubMod 1.5.10.3 | www.virtualdub-fr.org || (build 2550/release)
Writing library : VirtualDubMod build 2550/release
Video
ID : 0
Format : MPEG-4 Visual
Format profile : Advanced [email protected]
Format settings, BVOP : 2
Format settings, QPel : No
Format settings, GMC : No warppoints
Format settings, Matrix : Custom
Codec ID : XVID
Codec ID/Hint : XviD
Duration : 1h 29mn
Bit rate : 2 100 Kbps
Width : 688 pixels
Height : 512 pixels
Display aspect ratio : 4:3
Frame rate : 25.000 fps
Color space : YUV
Chroma subsampling : 4:2:0
Bit depth : 8 bits
Scan type : Progressive
Compression mode : Lossy
Bits/(Pixel*Frame) : 0.238
Stream size : 1.32 GiB (90%)
Writing library : XviD 64
Audio
ID : 1
Format : AC-3
Format/Info : Audio Coding 3
Mode extension : CM (complete main)
Format settings, Endianness : Big
Codec ID : 2000
Duration : 1h 29mn
Bit rate mode : Constant
Bit rate : 224 Kbps
Channel(s) : 2 channels
Channel positions : Front: L R
Sampling rate : 48.0 KHz
Bit depth : 16 bits
Compression mode : Lossy
Stream size : 144 MiB (10%)
Alignment : Split accross interleaves
Interleave, duration : 40 ms (1.00 video frame)
Interleave, preload duration : 500 ms

Раздача с 14.00 до 2.00 (время московское)
Download / Скачать

Хотите скачать бесплатно? Зарегистрируйтесь на сайте (ссылка на регистрацию). Pirat.ca - самый быстрый торрент трекер в рунете!

Как скачивать  ·   Что такое торрент  ·   Рейтинг и ограничения

Пост 29-Мар-2015 15:10 (спустя 29 минут)

Топик был перенесен из форума Наше кино (Трюм) в форум Советское кино
aleksey99
 

xzxscorpxzx

Флибустьер

Пост 11-Фев-2016 11:48 (спустя 10 месяцев 12 дней)

[Q] 

не смотрел,качаем)
[Профиль]  [ЛС] 
Показать сообщения:    
Ответить на тему

Текущее время: Сегодня 22:29

Часовой пояс: GMT + 4



Вы не можете начинать темы
Вы не можете отвечать на сообщения
Вы не можете редактировать свои сообщения
Вы не можете удалять свои сообщения
Вы не можете голосовать в опросах
Вы не можете прикреплять файлы к сообщениям
Вы не можете скачивать файлы

▼ Вниз