ML
     
  Уважаемый Гость!
Вы можете поддержать проект и зарегистрироваться у наших партнеров - онлайн-стратегия MyLands. При регистрации в игре Вы получите код, который сможете активировать после регистрации на pirat.ca и получить 1000 дублонов.

Ваш код:
500cb7bd8d2cec9a8aba647a87ce41c4b76f06bd
 
     

Помни имя своё (Сергей Колосов) [1974 г., драма, DVDRip]

Ответить на тему
 
Автор
Сообщение

Пост 30-Мар-2015 15:35

[Q] 

Мархуз

-Помни имя своё-- Производство: СССР. Киностудия «Мосфильм», «Иллюзион»
Режиссер: Сергей Колосов
Жанр: драма
Год выпуска: 1974 г.
Продолжительность: 01:36:59
В ролях: Людмила Касаткина, Людмила Иванова, Лилия Давидович, Слава Астахов, Тадеуш Боровский, Рышарда Ханин, Владимир Ивашов, Леон Немчик, Любовь Соколова-Описание: Во время второй мировой войны русская женщина Зинаида, попав в Освенцим, была разлучена с маленьким сыном. Но ребенок не погиб и не пропал. Его спасла и вырастила польская женщина...-Качество видео: DVDRip
Контейнер: AVI
Видео кодек: DivX
Аудио кодек: AC3
Видео: 688x512; 1817 kbps; 25 fps; 0.206 bit/pixel
Аудио: 192 kbps; 2 ch; 48 kHz
1975 г. - по опросу журнала «Советский экран» Людмила Касаткина - лучшая актриса
General
Complete name : D:\Torrent\Pomni_imja_svoe_[Pirat.ca].torrent.avi
Format : AVI
Format/Info : Audio Video Interleave
File size : 1.37 GiB
Duration : 1h 36mn
Overall bit rate : 2 019 Kbps
Writing application : VirtualDubModRus 1.5.10.2 (build 2542/release)
Writing library : VirtualDubMod build 2542/release
Video
ID : 0
Format : MPEG-4 Visual
Format settings, BVOP : 1
Format settings, QPel : No
Format settings, GMC : No warppoints
Format settings, Matrix : Default (H.263)
Muxing mode : Packed bitstream
Codec ID : DX50
Codec ID/Hint : DivX 5
Duration : 1h 36mn
Bit rate : 1 817 Kbps
Width : 688 pixels
Height : 512 pixels
Display aspect ratio : 4:3
Frame rate : 25.000 fps
Color space : YUV
Chroma subsampling : 4:2:0
Bit depth : 8 bits
Scan type : Progressive
Compression mode : Lossy
Bits/(Pixel*Frame) : 0.206
Stream size : 1.23 GiB (90%)
Writing library : DivX 6.8.3-6.8.4 (UTC 2008-06-07)
Audio
ID : 1
Format : AC-3
Format/Info : Audio Coding 3
Mode extension : CM (complete main)
Format settings, Endianness : Big
Codec ID : 2000
Duration : 1h 36mn
Bit rate mode : Constant
Bit rate : 192 Kbps
Channel(s) : 2 channels
Channel positions : Front: L R
Sampling rate : 48.0 KHz
Bit depth : 16 bits
Compression mode : Lossy
Stream size : 133 MiB (10%)
Alignment : Aligned on interleaves
Interleave, duration : 40 ms (1.00 video frame)
Interleave, preload duration : 512 ms

Раздача с 14.00 до 2.00 (время московское)
Download / Скачать

Хотите скачать бесплатно? Зарегистрируйтесь на сайте (ссылка на регистрацию). Pirat.ca - самый быстрый торрент трекер в рунете!

Как скачивать  ·   Что такое торрент  ·   Рейтинг и ограничения

Пост 30-Мар-2015 17:37 (спустя 2 часа 2 минуты)

Топик был перенесен из форума Наше кино (Трюм) в форум Советское кино
LPPI
 

xzxscorpxzx

Флибустьер

Пост 11-Фев-2016 11:26 (спустя 10 месяцев 11 дней)

[Q] 

трогательный фильм!
[Профиль]  [ЛС] 

ZhekasCat

Морской Волк

35

Пост 20-Фев-2016 02:43 (спустя 8 дней)

[Q] 

Невозможно спокойно смотреть такие фильмы. Спасибо!!!
[Профиль]  [ЛС] 

xzxscorpxzx

Флибустьер

Пост 23-Май-2016 00:47 (спустя 3 месяца 2 дня)

[Q] 

спасибо.Фильм шикарный....
[Профиль]  [ЛС] 
Показать сообщения:    
Ответить на тему

Текущее время: Сегодня 01:50

Часовой пояс: GMT + 4



Вы не можете начинать темы
Вы не можете отвечать на сообщения
Вы не можете редактировать свои сообщения
Вы не можете удалять свои сообщения
Вы не можете голосовать в опросах
Вы не можете прикреплять файлы к сообщениям
Вы не можете скачивать файлы

▼ Вниз