ML
     
  Уважаемый Гость!
Вы можете поддержать проект и зарегистрироваться у наших партнеров - онлайн-стратегия MyLands. При регистрации в игре Вы получите код, который сможете активировать после регистрации на pirat.ca и получить 1000 дублонов.

Ваш код:
0fcd44bd35319f69313aa6e53b31c51cbff1c942
 
     

Юность Максима (Леонид Трауберг, Григорий Козинцев) [1934 г., исторический, DVDRip]

Ответить на тему
 
Автор
Сообщение

Пост 02-Апр-2015 14:08

[Q] 

Мархуз

-Юность Максима-- Производство: СССР. Киностудия «Ленфильм»
Режиссеры: Леонид Трауберг, Григорий Козинцев
Жанр: исторический
Год выпуска: 1934 г.
Продолжительность: 01:30:51
В ролях: Борис Чирков, Степан Каюков, Валентина Кибардина, Михаил Тарханов, Александр Кулаков, Борис Блинов, Павел Волков, Ирина Гошова-Описание: 1910 год. В России свирепствует реакция, полицейский надзор распространился на все аспекты человеческой жизни. Гибель друзей и знакомство с методами подавления рабочего движения ставят Максима на путь превращения из гуляки-рабочего в большевика…-Качество видео: DVDRip
Контейнер: AVI
Видео кодек: XviD
Аудио кодек: MP3
Видео: 624x480; 1420 kbps; 25fps; 0.190 bit/pixel
Аудио: 128 kbps; 2 ch; 44,1 kHz stereo
Cубтитры: отсутствуют
1935 г. - Первый приз на 1-м Советском МКФ в Москве
1941 г. - Г. Козинцев, Л. Трауберг, Б. Чирков удостоены Сталинской премии первой степени.
Приз Национального совета кинокритиков США за лучший зарубежный фильм.
General
Complete name : D:\Torrent\Junost_Maksima_[Pirat.ca].torrent.avi
Format : AVI
Format/Info : Audio Video Interleave
File size : 1 012 MiB
Duration : 1h 30mn
Overall bit rate : 1 558 Kbps
Movie name : Юность Максима
Director : forum.xvid.ru
Writing application : VirtualDubMod 1.5.10.2 (build 2540/release)
Writing library : VirtualDub build 35390/release
Original source form/Name : фильм
Comment : Rip by Grob /forum.xvid.ru/ 13.03.2007
Video
ID : 0
Format : MPEG-4 Visual
Format profile : Advanced [email protected]
Format settings, BVOP : 2
Format settings, QPel : No
Format settings, GMC : No warppoints
Format settings, Matrix : Default (H.263)
Muxing mode : Packed bitstream
Codec ID : XVID
Codec ID/Hint : XviD
Duration : 1h 30mn
Bit rate : 1 420 Kbps
Width : 624 pixels
Height : 480 pixels
Display aspect ratio : 4:3
Frame rate : 25.000 fps
Color space : YUV
Chroma subsampling : 4:2:0
Bit depth : 8 bits
Scan type : Progressive
Compression mode : Lossy
Bits/(Pixel*Frame) : 0.190
Stream size : 923 MiB (91%)
Writing library : XviD 64
Audio
ID : 1
Format : MPEG Audio
Format version : Version 1
Format profile : Layer 3
Mode : Joint stereo
Mode extension : MS Stereo
Codec ID : 55
Codec ID/Hint : MP3
Duration : 1h 30mn
Bit rate mode : Constant
Bit rate : 128 Kbps
Channel(s) : 2 channels
Sampling rate : 44.1 KHz
Compression mode : Lossy
Stream size : 83.2 MiB (8%)
Alignment : Split accross interleaves

Раздача с 14.00 до 2.00 (время московское)
Download / Скачать

Хотите скачать бесплатно? Зарегистрируйтесь на сайте (ссылка на регистрацию). Pirat.ca - самый быстрый торрент трекер в рунете!

Как скачивать  ·   Что такое торрент  ·   Рейтинг и ограничения

Пост 02-Апр-2015 16:08 (спустя 2 часа)

Топик был перенесен из форума Наше кино (Трюм) в форум Советское кино
aleksey99
 

xzxscorpxzx

Флибустьер

Пост 11-Фев-2016 09:11 (спустя 10 месяцев 8 дней)

[Q] 

классика,супер!
[Профиль]  [ЛС] 
Показать сообщения:    
Ответить на тему

Текущее время: Сегодня 02:12

Часовой пояс: GMT + 4



Вы не можете начинать темы
Вы не можете отвечать на сообщения
Вы не можете редактировать свои сообщения
Вы не можете удалять свои сообщения
Вы не можете голосовать в опросах
Вы не можете прикреплять файлы к сообщениям
Вы не можете скачивать файлы

▼ Вниз