ML
     
  Уважаемый Гость!
Вы можете поддержать проект и зарегистрироваться у наших партнеров - онлайн-стратегия MyLands. При регистрации в игре Вы получите код, который сможете активировать после регистрации на pirat.ca и получить 1000 дублонов.

Ваш код:
ba41f7961e0b4717aed6a401d955262223b8f6c4
 
     

Возвращение Максима (Григорий Козинцев, Леонид Трауберг) [1937 г., исторический, DVDRip]

Ответить на тему
 
Автор
Сообщение

Пост 03-Апр-2015 14:52

[Q] 

Мархуз

-Возвращение Максима-- Производство: СССР. Киностудия «Ленфильм»
Режиссеры: Григорий Козинцев, Леонид Трауберг
Жанр: исторический
Год выпуска: 1937 г.
Продолжительность: 01:39:16
В ролях: Борис Чирков, Валентина Кибардина, Анатолий Кузнецов, Александр Зражевский, Александр Чистяков, Василий Ванин, Юрий Толубеев, Александр Бонди, Михаил Жаров, Николай Крючков-Описание: Весна 1914 года. В Петербурге - волна забастовок. Но рабочему движению нужен лидер. За нелегкую и опасную работу берется опытный конспиратор, которого даже товарищи знают только по имени - Максим.-Качество видео: DVDRip
Контейнер: AVI
Видео кодек: XviD
Аудио кодек: MP3
Видео: 624x480; 1147 kbps; 25 fps; 0.153 bit/pixel
Аудио: 128 kbps; 2 ch; 44 kHz
Cубтитры: отсутствуют
1941 г. - Г. Козинцев, Л. Трауберг, Б. Чирков удостоены Сталинской премии первой степени.
General
Complete name : D:\Torrent\Vozvrashenie_Maksima_[Pirat.ca].torrent.avi
Format : AVI
Format/Info : Audio Video Interleave
File size : 912 MiB
Duration : 1h 39mn
Overall bit rate : 1 284 Kbps
Movie name : Возвращение Максима
Director : forum.xvid.ru
Writing application : VirtualDubMod 1.5.10.2 (build 2540/release)
Writing library : VirtualDub build 35390/release
Comment : Rip by Grob /forum.xvid.ru/ 13.03.2007
Video
ID : 0
Format : MPEG-4 Visual
Format profile : Advanced [email protected]
Format settings, BVOP : 2
Format settings, QPel : No
Format settings, GMC : No warppoints
Format settings, Matrix : Default (H.263)
Muxing mode : Packed bitstream
Codec ID : XVID
Codec ID/Hint : XviD
Duration : 1h 39mn
Bit rate : 1 147 Kbps
Width : 624 pixels
Height : 480 pixels
Display aspect ratio : 4:3
Frame rate : 25.000 fps
Color space : YUV
Chroma subsampling : 4:2:0
Bit depth : 8 bits
Scan type : Progressive
Compression mode : Lossy
Bits/(Pixel*Frame) : 0.153
Stream size : 814 MiB (89%)
Writing library : XviD 64
Audio
ID : 1
Format : MPEG Audio
Format version : Version 1
Format profile : Layer 3
Mode : Joint stereo
Codec ID : 55
Codec ID/Hint : MP3
Duration : 1h 39mn
Bit rate mode : Constant
Bit rate : 128 Kbps
Channel(s) : 2 channels
Sampling rate : 44.1 KHz
Compression mode : Lossy
Stream size : 90.9 MiB (10%)
Alignment : Split accross interleaves
Interleave, duration : 40 ms (1.00 video frame)
Interleave, preload duration : 500 ms

Раздача с 14.00 до 2.00 (время московское)
Download / Скачать

Хотите скачать бесплатно? Зарегистрируйтесь на сайте (ссылка на регистрацию). Pirat.ca - самый быстрый торрент трекер в рунете!

Как скачивать  ·   Что такое торрент  ·   Рейтинг и ограничения

Пост 03-Апр-2015 18:15 (спустя 3 часа)

Топик был перенесен из форума Наше кино (Трюм) в форум Советское кино
aleksey99
 
Показать сообщения:    
Ответить на тему

Текущее время: Сегодня 14:44

Часовой пояс: GMT + 4



Вы не можете начинать темы
Вы не можете отвечать на сообщения
Вы не можете редактировать свои сообщения
Вы не можете удалять свои сообщения
Вы не можете голосовать в опросах
Вы не можете прикреплять файлы к сообщениям
Вы не можете скачивать файлы

▼ Вниз