ML
     
  Уважаемый Гость!
Вы можете поддержать проект и зарегистрироваться у наших партнеров - онлайн-стратегия MyLands. При регистрации в игре Вы получите код, который сможете активировать после регистрации на pirat.ca и получить 1000 дублонов.

Ваш код:
4fbd9898b6f10799a3e8edf60f31febd2bc15453
 
     

Выборгская сторона (Григорий Козинцев, Леонид Трауберг) [1938 г., Исторический, DVDRip]

Ответить на тему
 
Автор
Сообщение

Пост 04-Апр-2015 14:34

[Q] 

Мархуз

-Выборгская сторона-- Производство: СССР. Киностудия «Ленфильм»
Режиссеры: Григорий Козинцев, Леонид Трауберг
Жанр: Исторический
Год выпуска: 1938 г.
Продолжительность: 01:49:58
В ролях: Борис Чирков, Валентина Кибардина, Михаил Жаров, Наталья Ужвий, Юрий Толубеев, Александр Чистяков, Анатолий Кузнецов, Дмитрий Дудников, Борис Жуковский, Леонид Любашевский-Описание: 1918 год. Первые месяцы советской власти. Закаленный в боях большевик Максим становится комиссаром Государственного банка. Ему приходится нелегко. В Петрограде голод, толпы людей громят продовольственные склады, рабочие бастуют, а банковские служащие, ненавидящие большевиков, по поддельным документам переводят сотни тысяч рублей за границу.-Качество видео: DVDRip
Контейнер: AVI
Видео кодек: XviD
Аудио кодек: MP3
Видео: 624x480; 937 kbps; 25 fps; 0.125 bit/pixel
Аудио: 128 kbps; 2 ch; 44.1 kHz
Cубтитры: отсутствуют
1941 г. - Г. Козинцев, Л. Трауберг, Б. Чирков удостоены Сталинской премии первой степени.
General
Complete name : D:\Torrent\Viborgskaya_storona_[Pirat.ca].torrent.avi
Format : AVI
Format/Info : Audio Video Interleave
File size : 845 MiB
Duration : 1h 49mn
Overall bit rate : 1 075 Kbps
Movie name : Выборгская сторона
Director : forum.xvid.ru
Writing application : VirtualDubMod 1.5.10.2 (build 2540/release)
Writing library : VirtualDub build 35390/release
Comment : Rip by Grob /forum.xvid.ru/ 15.03.2007
Video
ID : 0
Format : MPEG-4 Visual
Format profile : Advanced [email protected]
Format settings, BVOP : 2
Format settings, QPel : No
Format settings, GMC : No warppoints
Format settings, Matrix : Default (H.263)
Muxing mode : Packed bitstream
Codec ID : XVID
Codec ID/Hint : XviD
Duration : 1h 49mn
Bit rate : 937 Kbps
Width : 624 pixels
Height : 480 pixels
Display aspect ratio : 4:3
Frame rate : 25.000 fps
Color space : YUV
Chroma subsampling : 4:2:0
Bit depth : 8 bits
Scan type : Progressive
Compression mode : Lossy
Bits/(Pixel*Frame) : 0.125
Stream size : 737 MiB (87%)
Writing library : XviD 64
Audio
ID : 1
Format : MPEG Audio
Format version : Version 1
Format profile : Layer 3
Mode : Joint stereo
Codec ID : 55
Codec ID/Hint : MP3
Duration : 1h 49mn
Bit rate mode : Constant
Bit rate : 128 Kbps
Channel(s) : 2 channels
Sampling rate : 44.1 KHz
Compression mode : Lossy
Stream size : 101 MiB (12%)
Alignment : Split accross interleaves
Interleave, duration : 40 ms (1.00 video frame)
Interleave, preload duration : 500 ms

Раздача с 14.00 до 2.00 (время московское)
Download / Скачать

Хотите скачать бесплатно? Зарегистрируйтесь на сайте (ссылка на регистрацию). Pirat.ca - самый быстрый торрент трекер в рунете!

Как скачивать  ·   Что такое торрент  ·   Рейтинг и ограничения

Пост 04-Апр-2015 15:32 (спустя 57 минут)

Топик был перенесен из форума Наше кино (Трюм) в форум Советское кино
erchine
 
Показать сообщения:    
Ответить на тему

Текущее время: Сегодня 19:57

Часовой пояс: GMT + 4



Вы не можете начинать темы
Вы не можете отвечать на сообщения
Вы не можете редактировать свои сообщения
Вы не можете удалять свои сообщения
Вы не можете голосовать в опросах
Вы не можете прикреплять файлы к сообщениям
Вы не можете скачивать файлы

▼ Вниз