ML
     
  Уважаемый Гость!
Вы можете поддержать проект и зарегистрироваться у наших партнеров - онлайн-стратегия MyLands. При регистрации в игре Вы получите код, который сможете активировать после регистрации на pirat.ca и получить 1000 дублонов.

Ваш код:
73640f24f8a0f579e128ea7346fd2db2b1009143
 
     

Карьера Спирьки Шпандыря (Борис Светлов, Юрий Музыкант) [1926 г., комедия, SATRip]

Ответить на тему
 
Автор
Сообщение

Пост 19-Апр-2015 20:12

[Q] 

Мархуз

-Карьера Спирьки Шпандыря-- Производство: СССР. "Ленинградкино"
Режиссеры: Борис Светлов, Юрий Музыкант
Жанр: комедия
Год выпуска: 1926 г.
Продолжительность: 00:53:10
В ролях: Леонид Утесов, Нина Железнова, Анатолий Нелидов, Е.Подольская, Николай Шмидтгоф, М.Городничев, Петр Андреевский, Мили Таут-Корсо, Екатерина Корчагина-Александровская, Яков Гудкин-Описание: Неунывающий щипач, гроза карманов обывателей Спирька Шпандырь, отсидев очередной срок решает что с советской властью ему не по-пути и бежит в веселый город Амстердам где очень скоро становится гордостью белой эмиграции - бароном фон-Шпандырем...-Качество видео: SATRip
Контейнер: AVI
Видео кодек: XviD
Аудио кодек: AC3
Видео: 720x544; 1595 kbps; 25 fps; 0.163 bit/pixel
Аудио: 192 Kbps; 2 ch; 48 KHz
Cубтитры: русские
Формат субтитров: hardsub (неотключаемые)
General
Complete name : D:\Torrent\Karjera_Spirki_Shpandira_[Pirat.ca].torrent.avi
Format : AVI
Format/Info : Audio Video Interleave
File size : 683 MiB
Duration : 53mn 10s
Overall bit rate : 1 797 Kbps
Movie name : Карьера Спирьки Шпандыря (1926)
Writing application : VirtualDubMod 1.5.10.2 (build 2540/release)
Writing library : VirtualDub build 35390/release
Copyright : miha2154
Video
ID : 0
Format : MPEG-4 Visual
Format profile : Advanced [email protected]
Format settings, BVOP : 2
Format settings, QPel : No
Format settings, GMC : No warppoints
Format settings, Matrix : Default (H.263)
Muxing mode : Packed bitstream
Codec ID : XVID
Codec ID/Hint : XviD
Duration : 53mn 10s
Bit rate : 1 595 Kbps
Width : 720 pixels
Height : 544 pixels
Display aspect ratio : 4:3
Frame rate : 25.000 fps
Color space : YUV
Chroma subsampling : 4:2:0
Bit depth : 8 bits
Scan type : Progressive
Compression mode : Lossy
Bits/(Pixel*Frame) : 0.163
Stream size : 607 MiB (89%)
Writing library : XviD 64
Audio
ID : 1
Format : AC-3
Format/Info : Audio Coding 3
Mode extension : CM (complete main)
Format settings, Endianness : Big
Codec ID : 2000
Duration : 53mn 9s
Bit rate mode : Constant
Bit rate : 192 Kbps
Channel(s) : 2 channels
Channel positions : Front: L R
Sampling rate : 48.0 KHz
Bit depth : 16 bits
Compression mode : Lossy
Stream size : 73.0 MiB (11%)
Alignment : Split accross interleaves
Interleave, duration : 40 ms (1.00 video frame)
Interleave, preload duration : 500 ms

Раздача с 14.00 до 2.00 (время московское)
Download / Скачать

Хотите скачать бесплатно? Зарегистрируйтесь на сайте (ссылка на регистрацию). Pirat.ca - самый быстрый торрент трекер в рунете!

Как скачивать  ·   Что такое торрент  ·   Рейтинг и ограничения

Пост 19-Апр-2015 21:43 (спустя 1 час 31 минута)

Топик был перенесен из форума Наше кино (Трюм) в форум Советское кино
kugesan
 
Показать сообщения:    
Ответить на тему

Текущее время: Сегодня 22:35

Часовой пояс: GMT + 4



Вы не можете начинать темы
Вы не можете отвечать на сообщения
Вы не можете редактировать свои сообщения
Вы не можете удалять свои сообщения
Вы не можете голосовать в опросах
Вы не можете прикреплять файлы к сообщениям
Вы не можете скачивать файлы

▼ Вниз