ML
     
  Уважаемый Гость!
Вы можете поддержать проект и зарегистрироваться у наших партнеров - онлайн-стратегия MyLands. При регистрации в игре Вы получите код, который сможете активировать после регистрации на pirat.ca и получить 1000 дублонов.

Ваш код:
5f4e94775bc0501caff7b254e79328d304c817d9
 
     

Прощай, шпана замоскворецкая... (Александр Панкратов) [1987 г., драма, DVDRip]

Ответить на тему
 
Автор
Сообщение

Пост 21-Апр-2015 13:34

[Q] 

Мархуз

-Прощай, шпана замоскворецкая...-- Производство: СССР. "Мосфильм"
Режиссер: Александр Панкратов
Жанр: драма
Год выпуска: 1987 г.
Продолжительность: 01:37:21
В ролях: Вячеслав Горбунчиков, Георгий Бурков, Олег Голубицкий, Михаил Голубович, Тамара Семина, Мария Капнист-Серко, Лариса Бородина, Николай Добрынин, Сергей Макаров, Нина Усатова, Наталья Попова, Инна Аленикова, Александр Лебедев, Валерий Порошин.-Описание: Московская окраина, весна 1956-го. В памяти и в душе шестнадцатилетнего героя фильма, сына политзаключенного, это время останется навсегда. Он встретит и потеряет свою первую любовь, столкнется с тупой жестокостью преступного мира, простится с детством, вновь обретет отца...-Качество видео: DVDRip
Контейнер: AVI
Видео кодек: DivX
Аудио кодек: AC3
Видео: 720x544; 1890 kbps; 25.00fps; 0.193 bit/pixel
Аудио: 112 kbps; 2 ch; 48 kHzs
Cубтитры: отсутствуют
General
Complete name : D:\Torrent\Proschaj_shpana_zamoskvoreckaja_[Pirat.ca].torrent.avi
Format : AVI
Format/Info : Audio Video Interleave
File size : 1.37 GiB
Duration : 1h 37mn
Overall bit rate : 2 009 Kbps
Writing application : VirtualDubMod 1.5.4.1 (build 2178/release)
Writing library : VirtualDubMod build 2178/release
Video
ID : 0
Format : MPEG-4 Visual
Format settings, BVOP : 1
Format settings, QPel : No
Format settings, GMC : No warppoints
Format settings, Matrix : Default (H.263)
Muxing mode : Packed bitstream
Codec ID : DX50
Codec ID/Hint : DivX 5
Duration : 1h 37mn
Bit rate : 1 890 Kbps
Width : 720 pixels
Height : 544 pixels
Display aspect ratio : 4:3
Frame rate : 25.000 fps
Color space : YUV
Chroma subsampling : 4:2:0
Bit depth : 8 bits
Scan type : Progressive
Compression mode : Lossy
Bits/(Pixel*Frame) : 0.193
Stream size : 1.29 GiB (94%)
Writing library : DivX 6.7.0 (UTC 2007-09-20)
Audio
ID : 1
Format : AC-3
Format/Info : Audio Coding 3
Mode extension : CM (complete main)
Format settings, Endianness : Big
Codec ID : 2000
Duration : 1h 37mn
Bit rate mode : Constant
Bit rate : 112 Kbps
Channel(s) : 2 channels
Channel positions : Front: L R
Sampling rate : 48.0 KHz
Bit depth : 16 bits
Compression mode : Lossy
Stream size : 78.0 MiB (6%)
Alignment : Split accross interleaves
Interleave, duration : 96 ms (2.40 video frames)
Interleave, preload duration : 96 ms

Раздача с 14.00 до 2.00 (время московское)
Download / Скачать

Хотите скачать бесплатно? Зарегистрируйтесь на сайте (ссылка на регистрацию). Pirat.ca - самый быстрый торрент трекер в рунете!

Как скачивать  ·   Что такое торрент  ·   Рейтинг и ограничения

Пост 21-Апр-2015 18:18 (спустя 4 часа)

Топик был перенесен из форума Наше кино (Трюм) в форум Советское кино
kugesan
 
Показать сообщения:    
Ответить на тему

Текущее время: Сегодня 15:32

Часовой пояс: GMT + 4



Вы не можете начинать темы
Вы не можете отвечать на сообщения
Вы не можете редактировать свои сообщения
Вы не можете удалять свои сообщения
Вы не можете голосовать в опросах
Вы не можете прикреплять файлы к сообщениям
Вы не можете скачивать файлы

▼ Вниз