ML
     
  Уважаемый Гость!
Вы можете поддержать проект и зарегистрироваться у наших партнеров - онлайн-стратегия MyLands. При регистрации в игре Вы получите код, который сможете активировать после регистрации на pirat.ca и получить 1000 дублонов.

Ваш код:
34514219cfad5497a1822ecc1269bea77988f9aa
 
     

Третья ракета (Ричард Викторов) [1963 г., военный, DVDRip]

Ответить на тему
 
Автор
Сообщение

Пост 28-Апр-2015 12:48

[Q] 

Мархуз

-Третья ракета-- Производство: СССР. «Беларусьфильм»
Режиссер: Ричард Викторов
Жанр: военный
Год выпуска: 1963 г.
Продолжительность: 01:16:24
В ролях: Станислав Любшин, Георгий Жжёнов, Спартак Федотов, Надежда Семенцова, Игорь Комаров, Юрий Дубровин, Леонид Давыдов-Субоч-Описание: Великая Отечественная война в Белоруссии. Артиллерийский расчёт трое суток в отрыве от своих. Судьба свела в одном окопе на передовой очень разных людей, которым предстояло выдержать первую танковую атаку немцев. В тяжёлой обстановке постоянной смертельной опасности раскрываются человеческие характеры...-Качество видео: DVDRip
Контейнер: AVI
Видео кодек: DivX
Аудио кодек: AC3
Видео: 704x528; 2296 kbps; 25 fps; 0.247 bit/pixel
Аудио: 256 kbps; 2 ch; 48 kHz
Cубтитры: отсутствуют
1964 г. - Диплом КФ Прибалтийских республик, Белоруссии и Молдавии за сценарий фильма.
General
Complete name : D:\Torrent\Tretya_raketa_[Pirat.ca].torrent.avi
Format : AVI
Format/Info : Audio Video Interleave
File size : 1.37 GiB
Duration : 1h 16mn
Overall bit rate : 2 562 Kbps
Director : Rip by Xamasas
Writing application : VirtualDubMod 1.5.10.2 (build 2540/release)
Video
ID : 0
Format : MPEG-4 Visual
Format settings, BVOP : No
Format settings, QPel : No
Format settings, GMC : No warppoints
Format settings, Matrix : Default (H.263)
Codec ID : DX50
Codec ID/Hint : DivX 5
Duration : 1h 16mn
Bit rate : 2 296 Kbps
Width : 704 pixels
Height : 528 pixels
Display aspect ratio : 4:3
Frame rate : 25.000 fps
Color space : YUV
Chroma subsampling : 4:2:0
Bit depth : 8 bits
Scan type : Progressive
Compression mode : Lossy
Bits/(Pixel*Frame) : 0.247
Stream size : 1.23 GiB (90%)
Writing library : DivX 5.2.1 (WaffleDay) (UTC 2004-09-08)
Audio
ID : 1
Format : AC-3
Format/Info : Audio Coding 3
Mode extension : CM (complete main)
Format settings, Endianness : Big
Codec ID : 2000
Duration : 1h 16mn
Bit rate mode : Constant
Bit rate : 256 Kbps
Channel(s) : 2 channels
Channel positions : Front: L R
Sampling rate : 48.0 KHz
Bit depth : 16 bits
Compression mode : Lossy
Stream size : 140 MiB (10%)
Alignment : Split accross interleaves
Interleave, duration : 40 ms (1.00 video frame)
Interleave, preload duration : 500 ms

Раздача с 14.00 до 2.00 (время московское)
Download / Скачать

Хотите скачать бесплатно? Зарегистрируйтесь на сайте (ссылка на регистрацию). Pirat.ca - самый быстрый торрент трекер в рунете!

Как скачивать  ·   Что такое торрент  ·   Рейтинг и ограничения

Пост 28-Апр-2015 13:25 (спустя 37 минут)

Топик был перенесен из форума Наше кино (Трюм) в форум Советское кино
kugesan
 

spidercola86

3249

Пост 28-Апр-2015 16:07 (спустя 3 часа)

[Q] 

!COOL! !
[Профиль]  [ЛС] 

Hkg84

Шкипер

Пост 04-Май-2015 19:24 (спустя 6 дней)

[Q] 

Хорошее кино.
[Профиль]  [ЛС] 
Показать сообщения:    
Ответить на тему

Текущее время: Сегодня 07:55

Часовой пояс: GMT + 4



Вы не можете начинать темы
Вы не можете отвечать на сообщения
Вы не можете редактировать свои сообщения
Вы не можете удалять свои сообщения
Вы не можете голосовать в опросах
Вы не можете прикреплять файлы к сообщениям
Вы не можете скачивать файлы

▼ Вниз