ML
     
  Уважаемый Гость!
Вы можете поддержать проект и зарегистрироваться у наших партнеров - онлайн-стратегия MyLands. При регистрации в игре Вы получите код, который сможете активировать после регистрации на pirat.ca и получить 1000 дублонов.

Ваш код:
a6d1ef7ff63e237add5a4c8b21d8aa937c5e9b4b
 
     

Я родом из детства (Виктор Туров) [1966 г., военный, TVRip]

Ответить на тему
 
Автор
Сообщение

Пост 28-Сен-2015 14:06

[Q] 

Мархуз

-Я родом из детства-- Производство: СССР, Беларусьфильм
Режиссер: Виктор Туров
Жанр: военный
Год выпуска: 1966 г.
Продолжительность: 01:23:11
В ролях: Нина Ургант, Таня Овчинко, Эдуард Довнар, Валерий Зубарев, Виктор Колодкин, Галина Супрунова, Светлана Турова, Елизавета Уварова, Маргарита Гладунко, Арина Алейникова, Евгений Ташков, Владимир Высоцкий, Владимир Белокуров, Павел Кормунин, Борис Сивицкий, Борис Руднев, Станислав Хитров-Описание: Игорь и Женька - мальчишки из прифронтового города, ждут своих близких, которые сражаются за освобождение Родины и надеются, что война скоро закончится…-Качество видео: TVRip
Контейнер: AVI
Видео кодек: XviD
Аудио кодек: MP3
Видео: 688x512; 1144 kbps; 25 fps; 0.130 bit/pixel
Аудио: 192 kbps; 2 ch;48 kHz
Cубтитры: отсутствуют
1967 г. - Кинофестиваль республик Прибалтики, Белоруссии и Молдавии. Премия за лучшую режиссёрскую работу (В. Туров). Премия за лучшую женскую роль (Н. Ургант)
По результатам опроса, проведённого белорусскими критиками, фильм был признан лучшим из созданного за всю историю белорусского кино.
General
Complete name : E:\Torrent 2\Ja_rodom_iz_detstva_[Pirat.ca].torrent.avi
Format : AVI
Format/Info : Audio Video Interleave
File size : 801 MiB
Duration : 1h 23mn
Overall bit rate : 1 346 Kbps
Writing application : VirtualDubModRus 1.5.10.2 (build 2542/release)
Writing library : VirtualDub build 35390/release
Video
ID : 0
Format : MPEG-4 Visual
Format profile : Advanced [email protected]
Format settings, BVOP : 2
Format settings, QPel : No
Format settings, GMC : No warppoints
Format settings, Matrix : Default (H.263)
Muxing mode : Packed bitstream
Codec ID : XVID
Codec ID/Hint : XviD
Duration : 1h 23mn
Bit rate : 1 144 Kbps
Width : 688 pixels
Height : 512 pixels
Display aspect ratio : 4:3
Frame rate : 25.000 fps
Color space : YUV
Chroma subsampling : 4:2:0
Bit depth : 8 bits
Scan type : Progressive
Compression mode : Lossy
Bits/(Pixel*Frame) : 0.130
Stream size : 681 MiB (85%)
Writing library : XviD 64
Audio
ID : 1
Format : MPEG Audio
Format version : Version 1
Format profile : Layer 3
Codec ID : 55
Codec ID/Hint : MP3
Duration : 1h 23mn
Bit rate mode : Constant
Bit rate : 192 Kbps
Channel(s) : 2 channels
Sampling rate : 48.0 KHz
Compression mode : Lossy
Stream size : 114 MiB (14%)
Alignment : Aligned on interleaves
Interleave, duration : 40 ms (1.00 video frame)
Interleave, preload duration : 504 ms
Writing library : LAME3.97
Encoding settings : -m s -V 4 -q 1 -b 192

Раздача с 14.00 до 2.00 (время московское)
Download / Скачать

Хотите скачать бесплатно? Зарегистрируйтесь на сайте (ссылка на регистрацию). Pirat.ca - самый быстрый торрент трекер в рунете!

Как скачивать  ·   Что такое торрент  ·   Рейтинг и ограничения

Пост 28-Сен-2015 17:17 (спустя 3 часа)

Топик был перенесен из форума Наше кино (Трюм) в форум Советское кино
aleksey99
 
Показать сообщения:    
Ответить на тему

Текущее время: Сегодня 13:37

Часовой пояс: GMT + 4



Вы не можете начинать темы
Вы не можете отвечать на сообщения
Вы не можете редактировать свои сообщения
Вы не можете удалять свои сообщения
Вы не можете голосовать в опросах
Вы не можете прикреплять файлы к сообщениям
Вы не можете скачивать файлы

▼ Вниз