ML
     
  Уважаемый Гость!
Вы можете поддержать проект и зарегистрироваться у наших партнеров - онлайн-стратегия MyLands. При регистрации в игре Вы получите код, который сможете активировать после регистрации на pirat.ca и получить 1000 дублонов.

Ваш код:
47bfc18b89c74e4ae0d974e9b6943639e2bff08e
 
     

Семьдесят два градуса ниже нуля (Сергей Данилин, Евгений Татарский) [1976 г., Киноповесть, SATRip]

Ответить на тему
 
Автор
Сообщение

Пост 01-Окт-2015 14:39

[Q] 

Мархуз

-Семьдесят два градуса ниже нуля-- Производство: СССР, «Ленфильм»
Режиссеры: Сергей Данилин, Евгений Татарский
Жанр: Киноповесть
Год выпуска: 1976 г.
Продолжительность: 01:16:59
В ролях: Николай Крючков, Александр Абдулов, Валерий Козинец, Олег Корчиков, Юрий Демич, Михаил Кононов, Николай Боярский, Олег Янковский, Сергей Иванов, Анатолий Соловьёв, Михаил Матвеев-Описание: Уникальная станция на геомагнитном полюсе земли «Восток» оказалась под угрозой закрытия из-за недостатка топлива. Спасти положение вызывается отряд добровольцев со станции «Мирный», доставив санно-гусенечный поезд с топливом ...-Качество видео: SATRip
Контейнер: AVI
Видео кодек: DivX
Аудио кодек: MP3
Видео: 704x352; 1860 kbps; 25 fps; 0.300 bit/pixel
Аудио: 128 kbps; 2 ch; 48 kHz
Cубтитры: отсутствуют
General
Complete name : D:\Torrent\72_gradusa_nizhe_nulja_[Pirat.ca].torrent.avi
Format : AVI
Format/Info : Audio Video Interleave
File size : 1.07 GiB
Duration : 1h 17mn
Overall bit rate : 1 997 Kbps
Writing application : VirtualDubMod 1.5.10.3 (build 2550/release)
Writing library : VirtualDubMod build 2550/release
Video
ID : 0
Format : MPEG-4 Visual
Format settings, BVOP : 1
Format settings, QPel : No
Format settings, GMC : No warppoints
Format settings, Matrix : Default (MPEG)
Muxing mode : Packed bitstream
Codec ID : DX50
Codec ID/Hint : DivX 5
Duration : 1h 17mn
Bit rate : 1 860 Kbps
Width : 704 pixels
Height : 352 pixels
Display aspect ratio : 2.000
Frame rate : 25.000 fps
Color space : YUV
Chroma subsampling : 4:2:0
Bit depth : 8 bits
Scan type : Progressive
Compression mode : Lossy
Bits/(Pixel*Frame) : 0.300
Stream size : 1.00 GiB (93%)
Writing library : DivX 6.8.5 (UTC 2009-08-20)
Audio
ID : 1
Format : MPEG Audio
Format version : Version 1
Format profile : Layer 3
Mode : Joint stereo
Codec ID : 55
Codec ID/Hint : MP3
Duration : 1h 16mn
Bit rate mode : Constant
Bit rate : 128 Kbps
Channel(s) : 2 channels
Sampling rate : 48.0 KHz
Compression mode : Lossy
Stream size : 70.5 MiB (6%)
Alignment : Aligned on interleaves
Interleave, duration : 40 ms (1.00 video frame)
Interleave, preload duration : 504 ms

Раздача с 14.00 до 2.00 (время московское)
Download / Скачать

Хотите скачать бесплатно? Зарегистрируйтесь на сайте (ссылка на регистрацию). Pirat.ca - самый быстрый торрент трекер в рунете!

Как скачивать  ·   Что такое торрент  ·   Рейтинг и ограничения

Пост 01-Окт-2015 14:57 (спустя 17 минут)

Топик был перенесен из форума Наше кино (Трюм) в форум Советское кино
aleksey99
 

knyazb

Морской Волк

Пост 03-Окт-2015 16:13 (спустя 2 дня 1 час)

[Q] 

Спасибо, хороший фильм! Автору респект!!!
[Профиль]  [ЛС] 
Показать сообщения:    
Ответить на тему

Текущее время: Сегодня 07:03

Часовой пояс: GMT + 4



Вы не можете начинать темы
Вы не можете отвечать на сообщения
Вы не можете редактировать свои сообщения
Вы не можете удалять свои сообщения
Вы не можете голосовать в опросах
Вы не можете прикреплять файлы к сообщениям
Вы не можете скачивать файлы

▼ Вниз