ML
     
  Уважаемый Гость!
Вы можете поддержать проект и зарегистрироваться у наших партнеров - онлайн-стратегия MyLands. При регистрации в игре Вы получите код, который сможете активировать после регистрации на pirat.ca и получить 1000 дублонов.

Ваш код:
ea554e7ed3eacceeae87a8b30a9de3f086c18a84
 
     

Угрюм-река (Ярополк Лапшин) [1968 г., приключения, история, драма, DVDRip] [По роману Вячеслава Шишкова.]

Ответить на тему
 
Автор
Сообщение

Пост 06-Дек-2015 16:59

[Q] 

Eugenius

Корсар

-Угрюм-река-- Производство: СССР
Режиссер: Ярополк Лапшин
Жанр: приключения, история, драма
Год выпуска: 1968 г.
Продолжительность: 04:56:33
Российская премьера: 15 апреля 1969
Дата выхода DVD: 5 ноября 2009
В ролях: Афанасий Кочетков, Виктор Чекмарев, Георгий Епифанцев, Валентина Владимирова, Гиви Тохадзе, Александр Демьяненко, Валентина Телегина, Людмила Чурсина, Евгений Весник, Иван Рыжов, Даниил Нетребин, Юрий Медведев, Н. Тэн, Н. Бадьев, Владимир Емельянов-Описание: В долгое путешествие по Угрюм-реке отправляет купец сына. Многое встретит он в пути — испытание золотом и властью, тяжкую болезнь и безумную страсть.
Глухая сибирская тайга, страна купцов, золотодобытчиков, разбойников... В долгое путешествие по Угрюм - реке отправляет купец сына. Многое встретит он в пути - испытание золотом и властью, тяжкую болезнь и безумную страсть. Любовь, ненависть, дружба и предательство - это те круги ада, по которым суждено пройти героям. Один из самых страстных советских фильмов - настоящий эпос о русской душе...
Четырехсерийная телевизионная (по заказу ЦТ) экранизация одноименного романа В. Шишкова. ("Громовы" - 80 мин., "Анфиса" - 80 мин., "Предательство" - 65 мин. и "Крах" - 72 мин.)- Качество видео: DVDRip
Контейнер: AVI
Видео: Xvid, 688x528, 25fps, 1025 Kbps
Аудио: Dolby AC3, 48000Hz, stereo, 192kbps-
Блестяще поставленный и сыгранный (актеры подобраны просто изумительно) черно-белый фильм пользовался и пользуется огромной популярностью. Историю взлета и падения сибирского купца, золотопромышленника и капиталиста Прохора Громова, как и в книге, авторы сумели подать настолько увлекательно, что картина, похоже, не устареет никогда. А как подана любовная линия Анфисы! Пересказать во всех оттенках сюжет невозможно, да и многие, наверняка, смотрели фильм по телевидению, благо пересматривать его можно много раз. Один из шедевров отечественного телесериала и один из моих любимейших фильмов. Чурсина за роль Анфисы была признана лучшей актрисой 1969. (Иванов М.)--Уж ты, матушка Угрюм-река.
Государыня, мать свирепая.

(Из старинной песни)
Помню, что роман Вячеслава Шишкова «Угрюм-река» произвел на меня глубокое впечатление. Фильм удалось посмотреть намного позже, когда потихоньку стали стираться в памяти все подробности закрученных хитросплетений и удивительным образом переплетающихся судеб главных героев.
К сожалению, за время, которое длится фильм невозможно передать все содержание интереснейшего романа, полностью раскрыть образы героев и проследить их судьбы, но Ярополк Лапшин сумел передать одну из главных идей: никто и ничто не властно над просторами Матушки Угрюм-реки.
Из актеров наиболее яркое впечатление оставила игра Людмилы Чурсиной. Роль красавицы Анфисы ей несомненно удалась.
И в довершение ко всему, хотелось бы отметить, что если вам понравился фильм, то от чтения романа вы получите колоссальное удовольствие.
«Ничего не осталось, кроме воспоминаний о том, чем ты был, чтоб усиливать твою муку о том, что ты теперь.»
(Прохор Громов)
Код:
General
Complete name                    : .\Ugryum-reka\Ugryum-reka.1-4.(Rus)DVDRip.B.N.bulvar.ws.avi
Format                           : AVI
Format/Info                      : Audio Video Interleave
File size                        : 696 MiB
Duration                         : 1h 19mn
Overall bit rate                 : 1 220 Kbps
Writing application              : VirtualDubMod 1.5.10.1 (build 2366/release)
Writing library                  : VirtualDubMod build 2366/release
Video
ID                               : 0
Format                           : MPEG-4 Visual
Format profile                   : Advanced [email protected]
Format settings, BVOP            : 2
Format settings, QPel            : No
Format settings, GMC             : No warppoints
Format settings, Matrix          : Default (MPEG)
Codec ID                         : XVID
Codec ID/Hint                    : XviD
Duration                         : 1h 19mn
Bit rate                         : 1 018 Kbps
Width                            : 688 pixels
Height                           : 528 pixels
Display aspect ratio             : 4:3
Frame rate                       : 25.000 fps
Color space                      : YUV
Chroma subsampling               : 4:2:0
Bit depth                        : 8 bits
Scan type                        : Progressive
Compression mode                 : Lossy
Bits/(Pixel*Frame)               : 0.112
Stream size                      : 581 MiB (83%)
Writing library                  : XviD 1.1.0 (UTC 2005-11-22)
Audio
ID                               : 1
Format                           : AC-3
Format/Info                      : Audio Coding 3
Mode extension                   : CM (complete main)
Codec ID                         : 2000
Duration                         : 1h 19mn
Bit rate mode                    : Constant
Bit rate                         : 192 Kbps
Channel(s)                       : 2 channels
Channel positions                : Front: L R
Sampling rate                    : 48.0 KHz
Bit depth                        : 16 bits
Compression mode                 : Lossy
Delay relative to video          : 100ms
Stream size                      : 110 MiB (16%)
Alignment                        : Split accross interleaves
Interleave, duration             : 40 ms (1.00 video frame)
Interleave, preload duration     : 500 ms
Download / Скачать

Хотите скачать бесплатно? Зарегистрируйтесь на сайте (ссылка на регистрацию). Pirat.ca - самый быстрый торрент трекер в рунете!

Как скачивать  ·   Что такое торрент  ·   Рейтинг и ограничения

Prorok155

Корсар

Пост 07-Дек-2015 00:21 (спустя 7 часов)

[Q] 

Спасибо. Автору респект!!!
[Профиль]  [ЛС] 

xzxscorpxzx

Флибустьер

Пост 09-Фев-2016 03:40 (спустя 2 месяца 2 дня)

[Q] 

спасибо Супер!
[Профиль]  [ЛС] 
Показать сообщения:    
Ответить на тему

Текущее время: Сегодня 12:14

Часовой пояс: GMT + 4



Вы не можете начинать темы
Вы не можете отвечать на сообщения
Вы не можете редактировать свои сообщения
Вы не можете удалять свои сообщения
Вы не можете голосовать в опросах
Вы не можете прикреплять файлы к сообщениям
Вы не можете скачивать файлы

▼ Вниз