ML
     
  Уважаемый Гость!
Вы можете поддержать проект и зарегистрироваться у наших партнеров - онлайн-стратегия MyLands. При регистрации в игре Вы получите код, который сможете активировать после регистрации на pirat.ca и получить 1000 дублонов.

Ваш код:
fe4e93b754a7c2b306fcfc8bc32532ea1cf59d3b
 
     

Война под крышами (Виктор Туров) [1967 г., военный, TVRip]

Ответить на тему
 
Автор
Сообщение

Пост 10-Дек-2015 16:41

[Q] 

Мархуз

-Война под крышами-- Производство: СССР, Беларусьфильм
Режиссер: Виктор Туров
Жанр: военный
Год выпуска: 1967 г.
Продолжительность: 01:31:05
В ролях: Нина Ургант, Елизавета Уварова, Екатерина Васильева, Любовь Малиновская, Дмитрий Капка, Александр Демьяненко, Михаил Матвеев, Александр Захаров, Владимир Мартынов, Владимир Белокуров, Владимир Маслов, Янис Грантиньш, Дмитрий Орлов, Виктор Чекмарев, Владимир Пицек, Юрий Горобец-Описание: С приходом оккупантов заведующая аптекой Анна Корзун установила связь с партизанами и передавала им информацию и медикаменты. Когда над ее домом нависла опасность, Анна, взяв с собой детей, пошла к партизанам...-Качество видео: TVRip
Контейнер: AVI
Видео кодек: XviD
Аудио кодек: MP3
Видео: 688x512; 1947 kbps; 25 fps; 0.221 bit/pixel
Аудио: 192 kbps; 2 ch; 48 kHz
Cубтитры: отсутствуют
General
Complete name : D:\Torrent\Voyna_pod_krishami_[Pirat.ca].torrent.avi
Format : AVI
Format/Info : Audio Video Interleave
File size : 1.37 GiB
Duration : 1h 31mn
Overall bit rate : 2 149 Kbps
Writing application : VirtualDubModRus 1.5.10.2 (build 2542/release)
Writing library : VirtualDubMod build 2542/release
Video
ID : 0
Format : MPEG-4 Visual
Format profile : Advanced [email protected]
Format settings, BVOP : 2
Format settings, QPel : No
Format settings, GMC : No warppoints
Format settings, Matrix : Default (MPEG)
Muxing mode : Packed bitstream
Codec ID : XVID
Codec ID/Hint : XviD
Duration : 1h 31mn
Bit rate : 1 947 Kbps
Width : 688 pixels
Height : 512 pixels
Display aspect ratio : 4:3
Frame rate : 25.000 fps
Color space : YUV
Chroma subsampling : 4:2:0
Bit depth : 8 bits
Scan type : Progressive
Compression mode : Lossy
Bits/(Pixel*Frame) : 0.221
Stream size : 1.24 GiB (91%)
Writing library : XviD 1.2.1 (UTC 2008-12-04)
Audio
ID : 1
Format : MPEG Audio
Format version : Version 1
Format profile : Layer 3
Codec ID : 55
Codec ID/Hint : MP3
Duration : 1h 31mn
Bit rate mode : Constant
Bit rate : 192 Kbps
Channel(s) : 2 channels
Sampling rate : 48.0 KHz
Compression mode : Lossy
Stream size : 125 MiB (9%)
Alignment : Aligned on interleaves
Interleave, duration : 40 ms (1.00 video frame)
Interleave, preload duration : 504 ms
Writing library : LAME3.97
Encoding settings : -m s -V 4 -q 1 -b 192

Раздача с 14.00 до 2.00 (время московское)
Download / Скачать

Хотите скачать бесплатно? Зарегистрируйтесь на сайте (ссылка на регистрацию). Pirat.ca - самый быстрый торрент трекер в рунете!

Как скачивать  ·   Что такое торрент  ·   Рейтинг и ограничения

Пост 11-Дек-2015 09:13 (спустя 16 часов)

Топик был перенесен из форума Наше кино (Трюм) в форум Советское кино
erchine
 

vovan200976

Флибустьер

Пост 11-Дек-2015 11:12 (спустя 18 часов)

[Q] 

Хорошие фильмы раньше снимали , Был патриотизм!!! Лови бочку
[Профиль]  [ЛС] 

xzxscorpxzx

Флибустьер

Пост 09-Фев-2016 03:49 (спустя 1 месяц 28 дней)

[Q] 

классика,спасибо! Всем качать!!!
[Профиль]  [ЛС] 
Показать сообщения:    
Ответить на тему

Текущее время: Сегодня 14:32

Часовой пояс: GMT + 4



Вы не можете начинать темы
Вы не можете отвечать на сообщения
Вы не можете редактировать свои сообщения
Вы не можете удалять свои сообщения
Вы не можете голосовать в опросах
Вы не можете прикреплять файлы к сообщениям
Вы не можете скачивать файлы

▼ Вниз