ML
     
  Уважаемый Гость!
Вы можете поддержать проект и зарегистрироваться у наших партнеров - онлайн-стратегия MyLands. При регистрации в игре Вы получите код, который сможете активировать после регистрации на pirat.ca и получить 1000 дублонов.

Ваш код:
2932e5898d0a27592397f70b82a5834d1e70ea19
 
     

Сыновья уходят в бой (Виктор Туров) [1969 г., военный, TVRip]

Ответить на тему
 
Автор
Сообщение

Пост 15-Дек-2015 14:14

[Q] 

Мархуз

-Сыновья уходят в бой-- Производство: СССР, Беларусьфильм
Режиссер: Виктор Туров
Жанр: военный
Год выпуска: 1969 г.
Продолжительность: 01:33:50
В ролях: Нина Ургант, Светлана Суховей, Ольга Лысенко, Станислав Чуркин, Константин Григорьев, Юрий Горобец, Дмитрий Капка, Александр Захаров, Владимир Мартынов, Александра Климова, Э. Деркантис, Мария Капнист, Мария Захаревич, Владимир Белокуров, Бронюс Бабкаускас, А. Юкнявитене, Владимир Поночевный, Ауримас Бабкаускас-Описание: Война ворвалась под крыши небольшого белорусского посёлка, вошла в дом Анны Михайловны. Эта женщина, как тысячи других, живёт и борется так, как велит ей сердце и долг матери. Подпольщиками, а потом партизанами вместе с матерью становятся и её сыновья…-Качество видео: TVRip
Контейнер: AVI
Видео кодек: XviD
Аудио кодек: MP3
Видео: 688x512; 1602 kbps; 25 fps; 0.182 bit/pixel
Аудио: 192 kbps; 2 ch; 48 kHz
Cубтитры: отсутствуют
General
Complete name : D:\Torrent\Sinovja_uhodjat_v_boj_[Pirat.ca].torrent.avi
Format : AVI
Format/Info : Audio Video Interleave
File size : 1.18 GiB
Duration : 1h 33mn
Overall bit rate : 1 804 Kbps
Writing application : VirtualDubModRus 1.5.10.2 (build 2542/release)
Writing library : VirtualDub build 35390/release
Video
ID : 0
Format : MPEG-4 Visual
Format profile : Advanced [email protected]
Format settings, BVOP : 2
Format settings, QPel : No
Format settings, GMC : No warppoints
Format settings, Matrix : Default (H.263)
Muxing mode : Packed bitstream
Codec ID : XVID
Codec ID/Hint : XviD
Duration : 1h 33mn
Bit rate : 1 602 Kbps
Width : 688 pixels
Height : 512 pixels
Display aspect ratio : 4:3
Frame rate : 25.000 fps
Color space : YUV
Chroma subsampling : 4:2:0
Bit depth : 8 bits
Scan type : Progressive
Compression mode : Lossy
Bits/(Pixel*Frame) : 0.182
Stream size : 1.05 GiB (89%)
Writing library : XviD 64
Audio
ID : 1
Format : MPEG Audio
Format version : Version 1
Format profile : Layer 3
Codec ID : 55
Codec ID/Hint : MP3
Duration : 1h 33mn
Bit rate mode : Constant
Bit rate : 192 Kbps
Channel(s) : 2 channels
Sampling rate : 48.0 KHz
Compression mode : Lossy
Stream size : 129 MiB (11%)
Alignment : Aligned on interleaves
Interleave, duration : 40 ms (1.00 video frame)
Interleave, preload duration : 504 ms
Writing library : LAME3.97
Encoding settings : -m s -V 4 -q 1 -b 192

Раздача с 14.00 до 2.00 (время московское)
Download / Скачать

Хотите скачать бесплатно? Зарегистрируйтесь на сайте (ссылка на регистрацию). Pirat.ca - самый быстрый торрент трекер в рунете!

Как скачивать  ·   Что такое торрент  ·   Рейтинг и ограничения

xzxscorpxzx

Флибустьер

Пост 09-Фев-2016 03:54 (спустя 1 месяц 24 дня)

[Q] 

супер фильм! Всем качать!!!
[Профиль]  [ЛС] 
Показать сообщения:    
Ответить на тему

Текущее время: Сегодня 08:05

Часовой пояс: GMT + 4



Вы не можете начинать темы
Вы не можете отвечать на сообщения
Вы не можете редактировать свои сообщения
Вы не можете удалять свои сообщения
Вы не можете голосовать в опросах
Вы не можете прикреплять файлы к сообщениям
Вы не можете скачивать файлы

▼ Вниз