ML
     
  Уважаемый Гость!
Вы можете поддержать проект и зарегистрироваться у наших партнеров - онлайн-стратегия MyLands. При регистрации в игре Вы получите код, который сможете активировать после регистрации на pirat.ca и получить 1000 дублонов.

Ваш код:
cc3be08b7507661c03e0a2f582d0da3a659ea55a
 
     

Точка отсчета (Виктор Туров) [1979 г., Киноповесть, TVRip]

Ответить на тему
 
Автор
Сообщение

Пост 16-Дек-2015 16:05

[Q] 

Мархуз

-Точка отсчета-- Производство: СССР, Беларусьфильм
Режиссер: Виктор Туров
Жанр: Киноповесть
Год выпуска: 1979 г.
Продолжительность: 01:36:09
В ролях: Петр Юрченков, Юрий Демич, Ольга Лысенко, Анатолий Ромашин, Николай Кочегаров, Василий Петренко, Андрей Градов-Описание: В ритм солдатских будней Валентин Воронов вошел легко. Одаренный от природы прекрасными физическими данными, он не скрывал от ровесников по призыву, что хочет стать первым среди них, как был первым среди парней своей округи. Воронов добьется своего: ему присвоят звание младшего сержанта, ему доверят отделение. Но наступят боевые учения, когда скажется моральная и нравственная неподготовленность Валентина к командованию людьми...-Качество видео: TVRip
Контейнер: AVI
Видео кодек: XviD
Аудио кодек: MP3
Видео: 704x528; 902 kbps; 25 fps; 0.097 bit/pixel
Аудио: 192 kbps; 2 ch; 48 kHz
1980 г. XIII Всесоюзный кинофестиваль в Душанбе - Приз за лучший военно-патриотический фильм
General
Complete name : D:\Torrent\Tochka_otscheta_[Pirat.ca].torrent.avi
Format : AVI
Format/Info : Audio Video Interleave
File size : 759 MiB
Duration : 1h 36mn
Overall bit rate : 1 104 Kbps
Writing application : VirtualDubModRus 1.5.10.2 (build 2542/release)
Writing library : VirtualDub build 35390/release
Video
ID : 0
Format : MPEG-4 Visual
Format profile : Advanced [email protected]
Format settings, BVOP : 2
Format settings, QPel : No
Format settings, GMC : No warppoints
Format settings, Matrix : Default (H.263)
Muxing mode : Packed bitstream
Codec ID : XVID
Codec ID/Hint : XviD
Duration : 1h 36mn
Bit rate : 902 Kbps
Width : 704 pixels
Height : 528 pixels
Display aspect ratio : 4:3
Frame rate : 25.000 fps
Color space : YUV
Chroma subsampling : 4:2:0
Bit depth : 8 bits
Scan type : Progressive
Compression mode : Lossy
Bits/(Pixel*Frame) : 0.097
Stream size : 620 MiB (82%)
Writing library : XviD 64
Audio
ID : 1
Format : MPEG Audio
Format version : Version 1
Format profile : Layer 3
Codec ID : 55
Codec ID/Hint : MP3
Duration : 1h 36mn
Bit rate mode : Constant
Bit rate : 192 Kbps
Channel(s) : 2 channels
Sampling rate : 48.0 KHz
Compression mode : Lossy
Stream size : 132 MiB (17%)
Alignment : Aligned on interleaves
Interleave, duration : 40 ms (1.00 video frame)
Interleave, preload duration : 504 ms
Writing library : LAME3.97
Encoding settings : -m s -V 4 -q 1 -b 192

Раздача с 14.00 до 2.00 (время московское)
Download / Скачать

Хотите скачать бесплатно? Зарегистрируйтесь на сайте (ссылка на регистрацию). Pirat.ca - самый быстрый торрент трекер в рунете!

Как скачивать  ·   Что такое торрент  ·   Рейтинг и ограничения

xzxscorpxzx

Флибустьер

Пост 09-Фев-2016 03:55 (спустя 1 месяц 23 дня)

[Q] 

не смотрел,качаю
[Профиль]  [ЛС] 
Показать сообщения:    
Ответить на тему

Текущее время: Сегодня 05:04

Часовой пояс: GMT + 4



Вы не можете начинать темы
Вы не можете отвечать на сообщения
Вы не можете редактировать свои сообщения
Вы не можете удалять свои сообщения
Вы не можете голосовать в опросах
Вы не можете прикреплять файлы к сообщениям
Вы не можете скачивать файлы

▼ Вниз