ML
     
  Уважаемый Гость!
Вы можете поддержать проект и зарегистрироваться у наших партнеров - онлайн-стратегия MyLands. При регистрации в игре Вы получите код, который сможете активировать после регистрации на pirat.ca и получить 1000 дублонов.

Ваш код:
9cfe162481db953a6549f32179d7b3900b8b8643
 
     

Армия «Трясогузки» (Александр Лейманис) [1964 г., героико-приключенческий, DVDRip]

Ответить на тему
 
Автор
Сообщение

Пост 22-Дек-2015 13:31

[Q] 

Мархуз

-Армия «Трясогузки»-- Производство: СССР, Рижская киностудия
Режиссер: Александр Лейманис
Жанр: героико-приключенческий
Год выпуска: 1964 г.
Продолжительность: 01:20:16
В ролях: Виктор Холмогоров, Юрий Коржов, Айварс Галвиньш, Гунар Цилинский, Иван Кузнецов, Виктор Плют, Алексей Алексеев, Гурген Тонунц, Павел Шпрингфельд, Улдис Думпис, Иван Лапиков, Любовь Малиновская-Описание: В городе, захваченном колчаковцами, готовится восстание, но вдруг, неожиданно для белых, под откос летит эшелон, а подписывается под этим терактом некая «армия «Трясогузки». Свирепствует колчаковская контрразведка, безуспешно пытаясь найти следы подпольщиков. Заинтересовались таинственными союзниками и большевики. Выясняется, что грозная террористическая организация состоит из трех мальчишек-беспризорников: русского мальчика по прозвищу Трясогузка, латыша Мики и цыганенка...-Качество видео: DVDRip
Контейнер: AVI
Видео кодек: XviD
Аудио кодек: AC3
Видео: 704x544; 995 kbps; 25 fps; 0.104 bit/pixel
Аудио: 448. kbps; 6 ch; 48 kHz
Cубтитры: отсутствуют
General
Complete name : E:\Torrent 2\Armija_Trijasoguski_[Pirat.ca].torrent.avi
Format : AVI
Format/Info : Audio Video Interleave
File size : 834 MiB
Duration : 1h 20mn
Overall bit rate : 1 452 Kbps
Writing application : VirtualDubMod 1.5.4.1 (build 2178/release)
Writing library : VirtualDub build 35390/release
Video
ID : 0
Format : MPEG-4 Visual
Format profile : Advanced [email protected]
Format settings, BVOP : 2
Format settings, QPel : No
Format settings, GMC : No warppoints
Format settings, Matrix : Default (H.263)
Muxing mode : Packed bitstream
Codec ID : XVID
Codec ID/Hint : XviD
Duration : 1h 20mn
Bit rate : 995 Kbps
Width : 704 pixels
Height : 544 pixels
Display aspect ratio : 1.294
Frame rate : 25.000 fps
Color space : YUV
Chroma subsampling : 4:2:0
Bit depth : 8 bits
Scan type : Progressive
Compression mode : Lossy
Bits/(Pixel*Frame) : 0.104
Stream size : 571 MiB (68%)
Writing library : XviD 64
Audio
ID : 1
Format : AC-3
Format/Info : Audio Coding 3
Mode extension : CM (complete main)
Format settings, Endianness : Big
Codec ID : 2000
Duration : 1h 20mn
Bit rate mode : Constant
Bit rate : 448 Kbps
Channel(s) : 6 channels
Channel positions : Front: L C R, Side: L R, LFE
Sampling rate : 48.0 KHz
Bit depth : 16 bits
Compression mode : Lossy
Stream size : 257 MiB (31%)
Alignment : Split accross interleaves
Interleave, duration : 40 ms (1.00 video frame)
Interleave, preload duration : 500 ms

Раздача с 14.00 до 2.00 (время московское)
Download / Скачать

Хотите скачать бесплатно? Зарегистрируйтесь на сайте (ссылка на регистрацию). Pirat.ca - самый быстрый торрент трекер в рунете!

Как скачивать  ·   Что такое торрент  ·   Рейтинг и ограничения

Пост 22-Дек-2015 18:38 (спустя 5 часов)

Топик был перенесен из форума Наше кино (Трюм) в форум Советское кино
aleksey99
 

xzxscorpxzx

Флибустьер

Пост 09-Фев-2016 03:57 (спустя 1 месяц 17 дней)

[Q] 

для разнообразия качнем)
[Профиль]  [ЛС] 
Показать сообщения:    
Ответить на тему

Текущее время: Сегодня 06:00

Часовой пояс: GMT + 4



Вы не можете начинать темы
Вы не можете отвечать на сообщения
Вы не можете редактировать свои сообщения
Вы не можете удалять свои сообщения
Вы не можете голосовать в опросах
Вы не можете прикреплять файлы к сообщениям
Вы не можете скачивать файлы

▼ Вниз