ML
     
  Уважаемый Гость!
Вы можете поддержать проект и зарегистрироваться у наших партнеров - онлайн-стратегия MyLands. При регистрации в игре Вы получите код, который сможете активировать после регистрации на pirat.ca и получить 1000 дублонов.

Ваш код:
db0e0ad91548759ffeb9bb88bed405e1a4b3c165
 
     

Армия «Трясогузки» снова в бою (Александр Лейманис) [1968 г., героико-приключенческий, DVDRip]

Ответить на тему
 
Автор
Сообщение

Пост 23-Дек-2015 15:19

[Q] 

Мархуз

-Армия «Трясогузки» снова в бою-- Производство: СССР, Рижская киностудия
Режиссер: Александр Лейманис
Жанр: героико-приключенческий
Год выпуска: 1968 г.
Продолжительность: 01:21:08
В ролях: Гунарс Цилинский, Айвар Галвиньш, Витя Холмогоров, Юра Коржов, Айварс Лейманис, Эгонс Майсакс, Виктор Гусев, Лена Кокоревич, Наташа Беликова, Иван Дмитриев, Иван Рыжов, Владимир Волчик, Байба Индриксоне, Борис Никифоров, Эдуард Павулс, Вера Титова, Александр Боярский, Владимир Васильев, Дмитрий Бокалов, Артур Димитерс, Людмила Тарасова-Описание: Действие фильма происходит на одной из узловых железнодорожных станций, находящейся в руках семеновцев. Сюда, в тыл врага, под видом богатого коммерсанта Загурского приезжает советский разведчик Платайс. Загурский должен получить здесь наследство после смерти брата. На станции коммерсанта и его дочь Мэри (это переодетый Мика) встречают подполковник белой разведки Свиридов и управляющий домом Загурского. Первая проверка проходит благополучно. Сюда же через линию фронта, перебрались Трясогузка и Цыган...-Качество видео: DVDRip
Контейнер: AVI
Видео кодек: XviD
Аудио кодек: AC3
Видео: 720x320; 2209 kbps; 25 fps; 0.383 bit/pixel
Аудио: 192 kbps; 2 ch; 48 kHz
Cубтитры: отсутствуют
General
Complete name : E:\Torrent 2\Armija_Trjasoguski_snova_v_boju_[Pirat.ca].torrent.avi
Format : AVI
Format/Info : Audio Video Interleave
File size : 1.36 GiB
Duration : 1h 21mn
Overall bit rate : 2 408 Kbps
Writing application : VirtualDubMod 1.5.4.1 (build 2178/release)
Writing library : VirtualDubMod build 2178/release
Video
ID : 0
Format : MPEG-4 Visual
Format profile : Advanced [email protected]
Format settings, BVOP : 1
Format settings, QPel : No
Format settings, GMC : No warppoints
Format settings, Matrix : Custom
Codec ID : XVID
Codec ID/Hint : XviD
Duration : 1h 21mn
Bit rate : 2 209 Kbps
Width : 720 pixels
Height : 320 pixels
Display aspect ratio : 2.25:1
Frame rate : 25.000 fps
Color space : YUV
Chroma subsampling : 4:2:0
Bit depth : 8 bits
Scan type : Progressive
Compression mode : Lossy
Bits/(Pixel*Frame) : 0.383
Stream size : 1.25 GiB (92%)
Writing library : XviD 1.2.0.dev47 (UTC 2006-11-01)
Audio
ID : 1
Format : AC-3
Format/Info : Audio Coding 3
Mode extension : CM (complete main)
Format settings, Endianness : Big
Codec ID : 2000
Duration : 1h 21mn
Bit rate mode : Constant
Bit rate : 192 Kbps
Channel(s) : 2 channels
Channel positions : Front: L R
Sampling rate : 48.0 KHz
Bit depth : 16 bits
Compression mode : Lossy
Stream size : 111 MiB (8%)
Alignment : Split accross interleaves
Interleave, duration : 96 ms (2.40 video frames)
Interleave, preload duration : 96 ms

Раздача с 14.00 до 2.00 (время московское)
Download / Скачать

Хотите скачать бесплатно? Зарегистрируйтесь на сайте (ссылка на регистрацию). Pirat.ca - самый быстрый торрент трекер в рунете!

Как скачивать  ·   Что такое торрент  ·   Рейтинг и ограничения

rebel2

Корсар

Пост 23-Дек-2015 21:12 (спустя 5 часов)

[Q] 

Спасибо!
[Профиль]  [ЛС] 

xzxscorpxzx

Флибустьер

Пост 09-Фев-2016 04:03 (спустя 1 месяц 16 дней)

[Q] 

качаю!не видел
[Профиль]  [ЛС] 
Показать сообщения:    
Ответить на тему

Текущее время: Сегодня 08:03

Часовой пояс: GMT + 4



Вы не можете начинать темы
Вы не можете отвечать на сообщения
Вы не можете редактировать свои сообщения
Вы не можете удалять свои сообщения
Вы не можете голосовать в опросах
Вы не можете прикреплять файлы к сообщениям
Вы не можете скачивать файлы

▼ Вниз