ML
     
  Уважаемый Гость!
Вы можете поддержать проект и зарегистрироваться у наших партнеров - онлайн-стратегия MyLands. При регистрации в игре Вы получите код, который сможете активировать после регистрации на pirat.ca и получить 1000 дублонов.

Ваш код:
e6008d9811a0b6a1393c3dc51ecd7bc35637bc21
 
     

Незаконченный ужин (2 серии) (Янис Стрейч) [1979 г., детектив, комедия, SATRip]

Ответить на тему
 
Автор
Сообщение

Пост 28-Дек-2015 14:18

[Q] 

Мархуз

-Незаконченный ужин (2 серии)-- Производство: СССР, Рижская киностудия
Режиссер: Янис Стрейч
Жанр: детектив, комедия
Год выпуска: 1979 г.
Продолжительность: 2 х 01:03:42
В ролях: Улдис Ваздикс, Ромуальд Анцанс, Янис Паукштелло, Паул Буткевич, Аквелина Ливмане, Болеслав Руж, Волдемар Лобиньш, Бертулис Пизич, Артур Димитерс, Лилита Берзиня, Лилия Америка, Эвалдс Валтерс, Мирдза Мартинсоне, Регина Разума, Ингрид Андриня, Анита Грубе, Арнольд Лининьш, Ивар Калныньш, Арийс Гейкинс, Александр Лейманис, Илга Витола, Катрина Пастернак, Светлана Блесс-Пуце, Эдгар Лиепиньш, Ольгерт Дункерс, Байба Индриксоне, Леонс Криванс, Ингрида Целма, Лигита Скуиня, Таливалдис Аболиньш , Эдуард Павулс, Янис Стрейч, Лилита Озолиня-Описание: В одной западной стране в шикарном ресторане за ужином убивают миллионера. Для ускорения следствия из столицы направлен известный комиссар, ибо затягивание дела грозит скандалом в "высших сферах". Чиновники всячески пытаются направить следствие по удобному им руслу.-Качество видео: SATRip
Контейнер: AVI
Видео кодек: XviD
Аудио кодек: AC3
Видео: 714x544; 1827 kbps; 25 fps; 0.188 bit/pixel
Аудио: 256 kbps; 2 ch; 48 kHz
Cубтитры: отсутствуют
1 серия
General
Complete name : E:\Torrent 2\Nezakonchennij_uzin_[Pirat.ca].torrent\серия (1).avi
Format : AVI
Format/Info : Audio Video Interleave
File size : 1 003 MiB
Duration : 1h 7mn
Overall bit rate : 2 092 Kbps
Writing application : VirtualDubMod 1.5.4.1 (build 2178/release)
Writing library : VirtualDub build 35390/release
Video
ID : 0
Format : MPEG-4 Visual
Format profile : Advanced [email protected]
Format settings, BVOP : 2
Format settings, QPel : No
Format settings, GMC : No warppoints
Format settings, Matrix : Default (H.263)
Muxing mode : Packed bitstream
Codec ID : XVID
Codec ID/Hint : XviD
Duration : 1h 7mn
Bit rate : 1 827 Kbps
Width : 714 pixels
Height : 544 pixels
Display aspect ratio : 4:3
Frame rate : 25.000 fps
Color space : YUV
Chroma subsampling : 4:2:0
Bit depth : 8 bits
Scan type : Progressive
Compression mode : Lossy
Bits/(Pixel*Frame) : 0.188
Stream size : 875 MiB (87%)
Writing library : XviD 64
Audio
ID : 1
Format : AC-3
Format/Info : Audio Coding 3
Mode extension : CM (complete main)
Format settings, Endianness : Big
Codec ID : 2000
Duration : 1h 7mn
Bit rate mode : Constant
Bit rate : 256 Kbps
Channel(s) : 2 channels
Channel positions : Front: L R
Sampling rate : 48.0 KHz
Bit depth : 16 bits
Compression mode : Lossy
Delay relative to video : 16ms
Stream size : 123 MiB (12%)
Alignment : Split accross interleaves
Interleave, duration : 40 ms (1.00 video frame)
Interleave, preload duration : 500 ms
2 серия
General
Complete name : E:\Torrent 2\Nezakonchennij_uzin_[Pirat.ca].torrent\серия (2).avi
Format : AVI
Format/Info : Audio Video Interleave
File size : 797 MiB
Duration : 1h 3mn
Overall bit rate : 1 749 Kbps
Writing application : VirtualDubMod 1.5.4.1 (build 2178/release)
Writing library : VirtualDub build 35390/release
Video
ID : 0
Format : MPEG-4 Visual
Format profile : Advanced [email protected]
Format settings, BVOP : 2
Format settings, QPel : No
Format settings, GMC : No warppoints
Format settings, Matrix : Default (H.263)
Muxing mode : Packed bitstream
Codec ID : XVID
Codec ID/Hint : XviD
Duration : 1h 3mn
Bit rate : 1 484 Kbps
Width : 714 pixels
Height : 544 pixels
Display aspect ratio : 4:3
Frame rate : 25.000 fps
Color space : YUV
Chroma subsampling : 4:2:0
Bit depth : 8 bits
Scan type : Progressive
Compression mode : Lossy
Bits/(Pixel*Frame) : 0.153
Stream size : 676 MiB (85%)
Writing library : XviD 64
Audio
ID : 1
Format : AC-3
Format/Info : Audio Coding 3
Mode extension : CM (complete main)
Format settings, Endianness : Big
Codec ID : 2000
Duration : 1h 3mn
Bit rate mode : Constant
Bit rate : 256 Kbps
Channel(s) : 2 channels
Channel positions : Front: L R
Sampling rate : 48.0 KHz
Bit depth : 16 bits
Compression mode : Lossy
Stream size : 117 MiB (15%)
Alignment : Split accross interleaves
Interleave, duration : 40 ms (1.00 video frame)
Interleave, preload duration : 500 ms

Раздача с 14.00 до 2.00 (время московское)
Download / Скачать

Хотите скачать бесплатно? Зарегистрируйтесь на сайте (ссылка на регистрацию). Pirat.ca - самый быстрый торрент трекер в рунете!

Как скачивать  ·   Что такое торрент  ·   Рейтинг и ограничения

xzxscorpxzx

Флибустьер

Пост 09-Фев-2016 04:29 (спустя 1 месяц 11 дней)

[Q] 

будем посмотреть)
[Профиль]  [ЛС] 
Показать сообщения:    
Ответить на тему

Текущее время: Сегодня 02:05

Часовой пояс: GMT + 4



Вы не можете начинать темы
Вы не можете отвечать на сообщения
Вы не можете редактировать свои сообщения
Вы не можете удалять свои сообщения
Вы не можете голосовать в опросах
Вы не можете прикреплять файлы к сообщениям
Вы не можете скачивать файлы

▼ Вниз