ML
     
  Уважаемый Гость!
Вы можете поддержать проект и зарегистрироваться у наших партнеров - онлайн-стратегия MyLands. При регистрации в игре Вы получите код, который сможете активировать после регистрации на pirat.ca и получить 1000 дублонов.

Ваш код:
2932e5898d0a27592397f70b82a5834d1e70ea19
 
     

Республика улицы Варну (Ада Неретниеце) [1970 г., детский, приключения, SATRip]

Ответить на тему
 
Автор
Сообщение

Пост 29-Дек-2015 15:03

[Q] 

Мархуз

-Республика улицы Варну -- Производство: СССР, Рижская киностудия
Режиссер: Ада Неретниеце
Жанр: детский, приключения
Год выпуска: 1970 г.
Продолжительность: 01:15:41
В ролях: Андрис Лиелайс, А. Цивцс, А. Кралисса, А. Лиепиньш, А. Апинис, В. Риепса, Гинтс Берзинс, М. Турке, Л. Стродс, А. Булдинскис, Велта Лине, Эльза Радзиня, М. Подгурска, Юрис Лейскалнс, Я. Мелдерис, Эрик Ферд.-Описание: Эта история происходит в одном из рабочих районов Риги, сразу после революции 1905 года. Ребята Вороньей улицы, чьи отцы трудятся на ближайших заводах и фабриках, противостоят «Империи Тулиана» - группе мальчишек, детей лавочников, с соседней улицы Лауку. История первых открытий, серьезных переживаний, история дружбы и любви.-Качество видео: SATRip
Контейнер: AVI
Видео кодек: XviD
Аудио кодек: MP3
Видео: 702x336; 1227 kbps; 25 fps; 0.208 bit/pixel
Аудио: 128 kbps; 2 ch; 48 kHz
Cубтитры: отсутствуют
Перевод: Профессиональный (одноголосый)
General
Complete name : E:\Torrent 2\Respublika_ulici_Varnu_[Pirat.ca].torrent.avi
Format : AVI
Format/Info : Audio Video Interleave
File size : 739 MiB
Duration : 1h 15mn
Overall bit rate : 1 364 Kbps
Writing application : VirtualDubMod 1.5.10.2 (build 2540/release)
Writing library : VirtualDub build 35390/release
Video
ID : 0
Format : MPEG-4 Visual
Format profile : Advanced [email protected]
Format settings, BVOP : 2
Format settings, QPel : No
Format settings, GMC : No warppoints
Format settings, Matrix : Default (H.263)
Muxing mode : Packed bitstream
Codec ID : XVID
Codec ID/Hint : XviD
Duration : 1h 15mn
Bit rate : 1 227 Kbps
Width : 702 pixels
Height : 336 pixels
Display aspect ratio : 2.089
Frame rate : 25.000 fps
Color space : YUV
Chroma subsampling : 4:2:0
Bit depth : 8 bits
Scan type : Progressive
Compression mode : Lossy
Bits/(Pixel*Frame) : 0.208
Stream size : 664 MiB (90%)
Writing library : XviD 64
Audio
ID : 1
Format : MPEG Audio
Format version : Version 1
Format profile : Layer 3
Codec ID : 55
Codec ID/Hint : MP3
Duration : 1h 15mn
Bit rate mode : Constant
Bit rate : 128 Kbps
Channel(s) : 2 channels
Sampling rate : 48.0 KHz
Compression mode : Lossy
Stream size : 69.3 MiB (9%)
Alignment : Aligned on interleaves
Interleave, duration : 40 ms (1.00 video frame)
Interleave, preload duration : 504 ms

Раздача с 14.00 до 2.00 (время московское)
Download / Скачать

Хотите скачать бесплатно? Зарегистрируйтесь на сайте (ссылка на регистрацию). Pirat.ca - самый быстрый торрент трекер в рунете!

Как скачивать  ·   Что такое торрент  ·   Рейтинг и ограничения

zvyagin_da

Пост 30-Дек-2015 00:29 (спустя 9 часов)

[Q] 

Спасибо. Сыну покажу.
[Профиль]  [ЛС] 

xzxscorpxzx

Флибустьер

Пост 09-Фев-2016 04:30 (спустя 1 месяц 10 дней)

[Q] 

спасибо! На любителя
[Профиль]  [ЛС] 
Показать сообщения:    
Ответить на тему

Текущее время: Сегодня 08:01

Часовой пояс: GMT + 4



Вы не можете начинать темы
Вы не можете отвечать на сообщения
Вы не можете редактировать свои сообщения
Вы не можете удалять свои сообщения
Вы не можете голосовать в опросах
Вы не можете прикреплять файлы к сообщениям
Вы не можете скачивать файлы

▼ Вниз