ML
     
  Уважаемый Гость!
Вы можете поддержать проект и зарегистрироваться у наших партнеров - онлайн-стратегия MyLands. При регистрации в игре Вы получите код, который сможете активировать после регистрации на pirat.ca и получить 1000 дублонов.

Ваш код:
a6d1ef7ff63e237add5a4c8b21d8aa937c5e9b4b
 
     

Внимание, цунами! (Георгий Юнгвальд-Хилькевич) [1969 г., драма, приключения, TVRip]

Ответить на тему
 
Автор
Сообщение

Пост 22-Янв-2016 15:21

[Q] 

Мархуз

-Внимание, цунами!-- Производство: СССР, Одесская киностудия
Режиссер: Георгий Юнгвальд-Хилькевич
Жанр: драма, приключения
Год выпуска: 1969 г.
Продолжительность: 01:16:47
В ролях: Георгий Юматов, Валентин Зубков, Николай Федорцов, Юрий Боголюбов, Владимир Костин, Анатолий Печников, Герман Полосков, Пантелеймон Крымов, Татьяна Иваненко, В. Костина, Татьяна Чернова-Описание: Отдаленный пост оповещения в Тихом океане. Там на берег часто обрушиваются цунами, сметая все на своем пути. Предупредить людей о надвигающейся опасности - обязанность моряков. Они должны фиксировать подземные толчки, которые могут спровоцировать цунами, и они же первыми подвергаются опасности. Семеро моряков несут свою службу, мирное течение которой прерывает обрушившийся на остров цунами. Есть жертвы - теперь необходимо предупредить материк о надвигающейся стихии...-Качество видео: TVRip
Контейнер: AVI
Видео кодек: DivX
Аудио кодек: MP3
Видео: 704x512; 1888 kbps; 25fps; 0.210 bit/pixel
Аудио: 128 kbps; 2 ch; 48 kHz
Cубтитры: отсутствуют
Complete name : E:\Torrent 2\Vnimanie_cunami_[Pirat.ca].torrent.avi
Format : AVI
Format/Info : Audio Video Interleave
File size : 1.09 GiB
Duration : 1h 16mn
Overall bit rate : 2 026 Kbps
Writing library : VirtualDub build 24442/release
Video
ID : 0
Format : MPEG-4 Visual
Format settings, BVOP : 1
Format settings, QPel : No
Format settings, GMC : No warppoints
Format settings, Matrix : Default (H.263)
Muxing mode : Packed bitstream
Codec ID : DX50
Codec ID/Hint : DivX 5
Duration : 1h 16mn
Bit rate : 1 888 Kbps
Width : 704 pixels
Height : 512 pixels
Display aspect ratio : 1.375
Frame rate : 25.000 fps
Color space : YUV
Chroma subsampling : 4:2:0
Bit depth : 8 bits
Scan type : Progressive
Compression mode : Lossy
Bits/(Pixel*Frame) : 0.210
Stream size : 1.01 GiB (93%)
Writing library : DivX 6.8.5 (UTC 2009-08-20)
Audio
ID : 1
Format : MPEG Audio
Format version : Version 1
Format profile : Layer 3
Mode : Joint stereo
Mode extension : MS Stereo
Codec ID : 55
Codec ID/Hint : MP3
Duration : 1h 16mn
Bit rate mode : Constant
Bit rate : 128 Kbps
Channel(s) : 2 channels
Sampling rate : 48.0 KHz
Compression mode : Lossy
Stream size : 70.3 MiB (6%)
Alignment : Split accross interleaves
Interleave, duration : 40 ms (1.00 video frame)
Interleave, preload duratio : 500 ms

Раздача с 14.00 до 2.00 (время московское)
Download / Скачать

Хотите скачать бесплатно? Зарегистрируйтесь на сайте (ссылка на регистрацию). Pirat.ca - самый быстрый торрент трекер в рунете!

Как скачивать  ·   Что такое торрент  ·   Рейтинг и ограничения

xzxscorpxzx

Флибустьер

Пост 09-Фев-2016 04:35 (спустя 17 дней)

[Q] 

не смотрел,качаю)
[Профиль]  [ЛС] 
Показать сообщения:    
Ответить на тему

Текущее время: Сегодня 13:36

Часовой пояс: GMT + 4



Вы не можете начинать темы
Вы не можете отвечать на сообщения
Вы не можете редактировать свои сообщения
Вы не можете удалять свои сообщения
Вы не можете голосовать в опросах
Вы не можете прикреплять файлы к сообщениям
Вы не можете скачивать файлы

▼ Вниз