ML
     
  Уважаемый Гость!
Вы можете поддержать проект и зарегистрироваться у наших партнеров - онлайн-стратегия MyLands. При регистрации в игре Вы получите код, который сможете активировать после регистрации на pirat.ca и получить 1000 дублонов.

Ваш код:
fe4e93b754a7c2b306fcfc8bc32532ea1cf59d3b
 
     

Сказание о Рустаме (Бенцион Ариевич (Борис Алексеевич) Кимягаров) [1971 г., Эпос, фантастика, киносказка, TVRip]

Ответить на тему
 
Автор
Сообщение

Пост 27-Мар-2016 18:26

[Q] 

somik

Легенда

-Сказание о Рустаме-- Производство: СССР, Таджикфильм
Режиссер: Бенцион Ариевич (Борис Алексеевич) Кимягаров
Жанр: Эпос, фантастика, киносказка
Год выпуска: 1971 г.
Продолжительность: 02:18:00
Российская премьера: 17 апреля 1972 СССР
В ролях: Бимболат (Бибо) Ватаев — Рустам, Хашим Гадоев — Сухраб, Светлана Норбаева — Тахмина, Отар Коберидзе — Кавус, Алим Ходжаев — поэт, Махмуджан Вахидов — див Тулад, Мухаметджан Касымов — Заль, Нозукмо Шомансурова — Рудабе, Гиви Тохадзе — Тус, Тариэль Касимов — Гив, Гиви Джаджанидзе — Гударз, Герман Нурханов — Тувалд, Гия Кобахидзе — Гургин, Н. Санакоев — Бахрам, Ходжакули Рахматуллаев — Калаф, Марьям Исаева — служанка, Д. Анваров — мальчик-поводырь, Гульсара Абдуллаева — молодая мать, Раззак Хамраев — Хуман-Описание: Эпическое сказание о подвигах легендарного древнеиранского богатыря Рустама — смелого воина, готового всегда придти на помощь тому, кто в ней нуждается. На экране герои эпоса: певец, говорящий правду жестокому властелину, и дэв, постоянно меняющий свои обличья.
Фильм-сказка. По поэме А.Фирдоуси "Шах-Наме".
Певец, говорящий правду жестокому властелину... Смелый воин, который всякий раз готов прийти на помощь тому, кто в нем нуждается... Дух зла, постоянно меняющий свои обличья... Пришли на экран герои поэмы «Шахнаме» классика таджикской и персидской литературы Фирдоуси. Поэма была написана десять столетий тому назад. Но вот мы слушаем с экрана ее философские монологи, афоризмы, острые, насыщенные драматизмом диалоги и поражаемся: стихи звучат современно! Это, пожалуй, главное впечатление фильма. Мир его условен: авторы, по-видимому, не ставили перед собой цель строго и тщательно воссоздать в двухсерийном фильме облик определенной эпохи, скорее на экране присутствуют лишь какие-то отдельные его элементы. Они не сосредоточивают свое внимание и на приключениях, сказочных превращениях, хотя в фильме их достаточно, что делает его интересным для зрителей самых разных возрастов. И все же главное авторское внимание уделено философской проблематике поэмы.
Это наиболее трудный путь, но он оказался и самым интересным.-КиноПоиск
Качество видео: TVRip
Контейнер: AVI
Видео кодек: DivX
Аудио кодек: MP3
Видео: Видео: DivX 5, 512х384 (4:3), 1 075 Kbps, 25 fps
Аудио: Аудио: MP3, 128 Kbps, 2 channels, 48.0 KHz
Cубтитры: отсутствуют
Доп. информация: В эпизодах — Дильбар Умарова, Х. Ахметов, Анвар Валиев (в титрах как А.Валиев), Абдулло Джураев, Т. Зайналпур, И. Зияев, К. Исламов, Киматшой Иматшоев, Э. Исматов, З. Казахова, Малика Каландарова, Т. Курбанов (II), Шахло Мулладжанова (в титрах как Ш. Мулладжанов), И. Мулладжанов, Н. Мухамеджанов, Арслан Мурадов (в титрах как А. (Л.?) Мурадов), У. Мирсалимов, А. Нурматов, Н. Айматов (в титрах — Н.Ойматов), Джахон Саидмурадов (в титрах как Д. Саидмурадов), Х. Тахиров, Б. Тураев, Ф. Умаров, А. Урунов, М. Халилов, Б. Хамидов, Курбан Шарипов, Б. Садыков (в титрах как М. Садыков),
Озвучивание — Алексей Алексеев
Съёмочная группа:
Режиссёр — Борис Кимягаров
Сценарист — Григорий Колтунов
Оператор — Давлатназар Худоназаров
Композитор — Ариф Меликов
Художник — Шавкат Абдусаламов
В титрах указано, что в фильме использованы русские переводы Ц. Бану, В. Державина, С. Липкина. По утверждению дочери сценариста Григория Колтунова на его собственные тексты «приходится чуть ли не семьдесят процентов диалогов».
«Сказание о Рустаме» — советский художественный фильм 1971 года, первая часть исторической кинотрилогии по эпической поэме Фирдоуси «Шахнаме»
Первая часть кинотрилогии по мотивам поэмы "Шах-наме" Абдулкасим Фирдоуси. Один из шедевров советского кинематографа
"Сказание о Рустаме",
"Рустам и Сухраб",
"Сказание о Сиявуше".
Певец, говорящий правду жестокому властелину... Смелый воин, который всякий раз готов прийти на помощь тому, кто в нем нуждается... Дух зла, постоянно меняющий свои обличья... Пришли на экран герои поэмы «Шахнаме» классика таджикской и персидской литератур Фирдоуси. Поэма была написана десять столетий тому назад. Но вот мы слушаем с экрана ее философские монологи, афоризмы, острые, насыщенные драматизмом диалоги и поражаемся: стихи звучат современно! Это, пожалуй, главное впечатление фильма. Мир его условен: авторы, по-видимому, не ставили перед собой цель строго и тщательно воссоздать в двухсерийном фильме облик определенной эпохи, скорее на экране присутствуют лишь какие-то отдельные его элементы. Они не сосредоточивают свое внимание и на приключениях, сказочных превращениях, хотя в фильме их достаточно, что делает его интересным для зрителей самых разных возрастов. И все же главное авторское внимание уделено философской проблематике поэмы.
Это наиболее трудный путь, но он оказался и самым интересным.
Format : AVI
Format/Info : Audio Video Interleave
File size : 1.17 GiB
Duration : 2h 18mn
Overall bit rate : 1 212 Kbps
Writing application : VirtualDubMod 1.5.4.1 (build 2178/release)
Writing library : VirtualDub build 28292/release
Video #0
ID : 0
Format : MPEG-4 Visual
Format settings, BVOP : Yes
Format settings, QPel : No
Format settings, GMC : No warppoints
Format settings, Matrix : Default (H.263)
Muxing mode : Packed bitstream
Codec ID : DX50
Codec ID/Hint : DivX 5
Duration : 2h 18mn
Bit rate : 1 075 Kbps
Width : 512 pixels
Height : 384 pixels
Display aspect ratio : 4:3
Frame rate : 25.000 fps
Resolution : 24 bits
Colorimetry : 4:2:0
Scan type : Progressive
Bits/(Pixel*Frame) : 0.219
Stream size : 1.04 GiB (89%)
Writing library : DivX 6.7.0 (UTC 2007-09-20)
Audio #1
ID : 1
Format : MPEG Audio
Format version : Version 1
Format profile : Layer 3
Codec ID : 55
Codec ID/Hint : MP3
Duration : 2h 18mn
Bit rate mode : Constant
Bit rate : 128 Kbps
Channel(s) : 2 channels
Sampling rate : 48.0 KHz
Resolution : 16 bits
Stream size : 127 MiB (11%)
Alignment : Aligned on interleaves
Interleave, duration : 40 ms (1.00 video frame)
Interleave, preload duration : 504 ms
Writing library : LAME3.97
Encoding settings : -m j -V 4 -q 2 -lowpass 17 -b 128
Download / Скачать

Хотите скачать бесплатно? Зарегистрируйтесь на сайте (ссылка на регистрацию). Pirat.ca - самый быстрый торрент трекер в рунете!

Как скачивать  ·   Что такое торрент  ·   Рейтинг и ограничения

somik ®

Легенда

26703

Пост 27-Мар-2016 18:34 (спустя 7 минут)

[Q] 

Назад в СССР! Этот фильм был для нас как "Подвиги Геракла" (только тот был, почему-то, до 16). Всем качать!!! Возможно, скоро мы, даже в таком качестве, не увидим наше наследие... Говорят, у нас где-то было министерство культуры? Наверное, прошло...

_________________
Всё когда-нибудь уже было... В интернете!
[Профиль]  [ЛС] 

Пост 27-Мар-2016 19:34 (спустя 59 минут)

Топик был перенесен из форума Наше кино (Трюм) в форум Советское кино
aleksey99
 
Показать сообщения:    
Ответить на тему

Текущее время: Сегодня 14:32

Часовой пояс: GMT + 4



Вы не можете начинать темы
Вы не можете отвечать на сообщения
Вы не можете редактировать свои сообщения
Вы не можете удалять свои сообщения
Вы не можете голосовать в опросах
Вы не можете прикреплять файлы к сообщениям
Вы не можете скачивать файлы

▼ Вниз