ML
     
  Уважаемый Гость!
Вы можете поддержать проект и зарегистрироваться у наших партнеров - онлайн-стратегия MyLands. При регистрации в игре Вы получите код, который сможете активировать после регистрации на pirat.ca и получить 1000 дублонов.

Ваш код:
34514219cfad5497a1822ecc1269bea77988f9aa
 
     

Слуги дьявола (Александр Лейманис) [1970 г., приключения, комедия, DVDRip]

Ответить на тему
 
Автор
Сообщение

Пост 01-Апр-2016 13:07

[Q] 

Мархуз

-Слуги дьявола-- Производство: СССР, Рижская киностудия
Режиссер: Александр Лейманис
Жанр: приключения, комедия
Год выпуска: 1970 г.
Продолжительность: 01:19:11
В ролях: Харальд Ритенбергс, Артур Экис, Эдуард Павулс, Лолита Цауке, Ольга Дреге, Эльза Радзинь, Ингрид Андринь, Байба Индриксоне, Карл Себрис, Зигруда Стунгуре, Эвальд Валтерс, Янис Грантиньш, Эдгар Зиле, Янис Осис, Валентин Скулме, Волдемар Акуратерс-Описание: XVII век. Трое отважных рижан защищают родной город, осажденный шведской армией и вступают в конфликт с "отцами города", которые втайне собираются сдать Ригу шведам.-Качество видео: DVDRip
Контейнер: AVI
Видео кодек: DivX
Аудио кодек: AC3
Видео: 720x384; 2207 kbps; 25 fps; 0.319 bit/pixel
Аудио: 256 kbps; 2 ch; 48 kHz
Cубтитры: отсутствуют
General
Complete name : E:\Torrent 2\Slugi_djavola_[Pirat.ca].torrent.avi
Format : AVI
Format/Info : Audio Video Interleave
File size : 1.37 GiB
Duration : 1h 19mn
Overall bit rate : 2 473 Kbps
Writing application : VirtualDubModRus 1.5.10.2 (build 2542/release)
Writing library : VirtualDubMod build 2542/release
Video
ID : 0
Format : MPEG-4 Visual
Format settings, BVOP : Yes
Format settings, QPel : No
Format settings, GMC : No warppoints
Format settings, Matrix : Default (H.263)
Codec ID : DX50
Codec ID/Hint : DivX 5
Duration : 1h 19mn
Bit rate : 2 207 Kbps
Width : 720 pixels
Height : 384 pixels
Display aspect ratio : 1.85:1
Frame rate : 25.000 fps
Color space : YUV
Chroma subsampling : 4:2:0
Bit depth : 8 bits
Scan type : Progressive
Compression mode : Lossy
Bits/(Pixel*Frame) : 0.319
Stream size : 1.22 GiB (89%)
Writing library : DivX 6.8.3-6.8.4 (UTC 2008-06-07)
Audio
ID : 1
Format : AC-3
Format/Info : Audio Coding 3
Mode extension : CM (complete main)
Format settings, Endianness : Big
Codec ID : 2000
Duration : 1h 19mn
Bit rate mode : Constant
Bit rate : 256 Kbps
Channel(s) : 2 channels
Channel positions : Front: L R
Sampling rate : 48.0 KHz
Frame rate : 31.250 fps (1536 spf)
Compression mode : Lossy
Stream size : 145 MiB (10%)
Alignment : Aligned on interleaves
Interleave, duration : 40 ms (1.00 video frame)
Interleave, preload duratio : 512 ms

Раздача с 14.00 до 2.00 (время московское)
Download / Скачать

Хотите скачать бесплатно? Зарегистрируйтесь на сайте (ссылка на регистрацию). Pirat.ca - самый быстрый торрент трекер в рунете!

Как скачивать  ·   Что такое торрент  ·   Рейтинг и ограничения

somik

Легенда

26601

Пост 01-Апр-2016 16:56 (спустя 3 часа)

[Q] 

Вот это , да!! Спасибо! А у Вас нет "Слуги дьявола на чёртовой мельнице"?!

_________________
Всё когда-нибудь уже было... В интернете!
[Профиль]  [ЛС] 
Показать сообщения:    
Ответить на тему

Текущее время: Сегодня 07:56

Часовой пояс: GMT + 4



Вы не можете начинать темы
Вы не можете отвечать на сообщения
Вы не можете редактировать свои сообщения
Вы не можете удалять свои сообщения
Вы не можете голосовать в опросах
Вы не можете прикреплять файлы к сообщениям
Вы не можете скачивать файлы

▼ Вниз