ML
     
  Уважаемый Гость!
Вы можете поддержать проект и зарегистрироваться у наших партнеров - онлайн-стратегия MyLands. При регистрации в игре Вы получите код, который сможете активировать после регистрации на pirat.ca и получить 1000 дублонов.

Ваш код:
500cb7bd8d2cec9a8aba647a87ce41c4b76f06bd
 
     

Смотри в оба! (Эльдор Уразбаев) [1981 г., военный, драма, TVRip]

Ответить на тему
 
Автор
Сообщение

Пост 04-Апр-2016 13:24

[Q] 

Мархуз

-Смотри в оба!-- Производство: СССР, киностудия им. Горького
Режиссер: Эльдор Уразбаев
Жанр: военный, драма
Год выпуска: 1981 г.
Продолжительность: 01:13:16
В ролях: Борислав Брондуков, Федор Сухов, Светлана Орлова, Нина Алисова, Алексей Серебряков, Александр Яковлев, Виктор Ильичев, Юрий Дубровин, Нартай Бегалин, Николай Горлов-Описание: 1921 год. Гражданская война. «Смотри в оба!» - сказал представитель Ревкома комсомольцу Алеше Команову, давая ему в помощники механика Лыкина: уж очень подозрительным казался этот маленький, бойкий на язык мужичок. К тому же, в округе бродят недобитые красными кавалеристами бандиты, с которыми героям предстоит вступить в смертельную схватку…-Качество видео: TVRip
Контейнер: AVI
Видео кодек: XviD
Аудио кодек: AC3
Видео: 688x336; 2390 kbps; 25 fps; 0.414 bit/pixel
Аудио: 256 kbps; 2 ch; 48 kHz
Cубтитры: отсутствуют
General
Complete name : E:\Torrent 2\Smotri_v_oba_[Pirat.ca].torrent.avi
Format : AVI
Format/Info : Audio Video Interleave
File size : 1.36 GiB
Duration : 1h 13mn
Overall bit rate : 2 656 Kbps
Writing application : VirtualDubMod 1.5.10.3 | www.virtualdub-fr.org || (build 2550/release)
Writing library : VirtualDubMod build 2550/release
Video
ID : 0
Format : MPEG-4 Visual
Format profile : Advanced [email protected]
Format settings, BVOP : 1
Format settings, QPel : No
Format settings, GMC : No warppoints
Format settings, Matrix : Custom
Codec ID : XVID
Codec ID/Hint : XviD
Duration : 1h 13mn
Bit rate : 2 390 Kbps
Width : 688 pixels
Height : 336 pixels
Display aspect ratio : 2.048
Frame rate : 25.000 fps
Color space : YUV
Chroma subsampling : 4:2:0
Bit depth : 8 bits
Scan type : Progressive
Compression mode : Lossy
Bits/(Pixel*Frame) : 0.414
Stream size : 1.22 GiB (90%)
Writing library : XviD 65
Audio
ID : 1
Format : AC-3
Format/Info : Audio Coding 3
Mode extension : CM (complete main)
Format settings, Endianness : Big
Codec ID : 2000
Duration : 1h 13mn
Bit rate mode : Constant
Bit rate : 256 Kbps
Channel(s) : 2 channels
Channel positions : Front: L R
Sampling rate : 48.0 KHz
Frame rate : 31.250 fps (1536 spf)
Compression mode : Lossy
Stream size : 134 MiB (10%)
Alignment : Split accross interleaves
Interleave, duration : 40 ms (1.00 video frame)
Interleave, preload duratio : 500 ms

Раздача с 14.00 до 2.00 (время московское)
Download / Скачать

Хотите скачать бесплатно? Зарегистрируйтесь на сайте (ссылка на регистрацию). Pirat.ca - самый быстрый торрент трекер в рунете!

Как скачивать  ·   Что такое торрент  ·   Рейтинг и ограничения

Пост 04-Апр-2016 17:51 (спустя 4 часа)

Топик был перенесен из форума Наше кино в форум Советское кино
Андря
 
Показать сообщения:    
Ответить на тему

Текущее время: Сегодня 01:48

Часовой пояс: GMT + 4



Вы не можете начинать темы
Вы не можете отвечать на сообщения
Вы не можете редактировать свои сообщения
Вы не можете удалять свои сообщения
Вы не можете голосовать в опросах
Вы не можете прикреплять файлы к сообщениям
Вы не можете скачивать файлы

▼ Вниз