ML
     
  Уважаемый Гость!
Вы можете поддержать проект и зарегистрироваться у наших партнеров - онлайн-стратегия MyLands. При регистрации в игре Вы получите код, который сможете активировать после регистрации на pirat.ca и получить 1000 дублонов.

Ваш код:
8dcb839cf1b47e56d6dc42d17f26b3e4822e9aee
 
     

Дура (Алексей Коренев) [1991 г., драма, комедия, детектив, SATRip] [По мотивам одноименной пьесы Марселя Ашара.]

Ответить на тему
 
Автор
Сообщение

Пост 29-Май-2016 14:19

[Q] 

somik

Легенда

-Дура / По мотивам одноименной пьесы Марселя Ашара.-- Производство: СССР, Госкино
Режиссер: Алексей Коренев
Жанр: драма, комедия, детектив
Год выпуска: 1991 г.
Продолжительность: 02:07:26
Российская премьера: 1991
В ролях: Валерия Богук, Николай Караченцов, Анна Самохина, Лариса Удовиченко, Вениамин Смехов, Михаил Кокшенов, Александр Беспалый, Юрий Казючиц, Анатолий Кляшторный, Сергей Мигицко, Михаил Муромов, Евгений Тиличеев-Описание: Мари Лантане подозревается в убийстве. Ее нашли обнаженной, в обмороке на полу ее спальни, и в руке она держала револьвер, из которого был убит ее любовник, лежавший в луже крови рядом с ней. Придя в себя, она заявила, что убийства не совершала, а видела, как стреляла какая-то тень, появившаяся в двери. Следователь верит девушке, которую в силу ее невероятной глупости, все называют просто дурой, и даже помогает ей нанять адвоката, чтобы избавить от сурового приговора…-Сэмпл КиноПоиск
Качество видео: SATRip
Контейнер: AVI
Видео кодек: XviD
Аудио кодек: MP3
Видео: 672x512 (1.31:1), 25 fps, XviD MPEG-4 ~1739 kbps avg, 0.20 bit/pixel
Аудио: 48 kHz, MPEG Layer 3, 2 ch, ~128.00 kbps avg
Cубтитры: отсутствуют
Формат : AVI
Формат/Информация : Audio Video Interleave
Размер файла : 1,67 Гбайт
Продолжительность : 2 ч. 7 м.
Общий поток : 1877 Кбит/сек
Название фильма : Dura.1991.[pirat.ca]
Программа кодирования : VirtualDubMod 1.5.10.2 (build 2542/release)
Видео
Идентификатор : 0
Формат : MPEG-4 Visual
Профиль формата : Advanced [email protected]
Параметр BVOP формата : 2
Параметр QPel формата : Нет
Параметр GMC формата : Без точки перехода
Параметр матрицы формата : Default (H.263)
Режим смешивания : Сжатый битовый поток
Идентификатор кодека : XVID
Идентификатор кодека/Подсказка : XviD
Продолжительность : 2 ч. 7 м.
Битрейт : 1740 Кбит/сек
Ширина : 672 пикселя
Высота : 512 пикселей
Соотношение сторон : 4:3
Частота кадров : 25,000 кадров/сек
Цветовое пространство : YUV
Субдискретизация насыщенности : 4:2:0
Битовая глубина : 8 бит
Тип развёртки : Прогрессивная
Метод сжатия : С потерями
Бит/(Пиксели*Кадры) : 0.202
Размер потока : 1,55 Гбайт (93%)
Библиотека кодирования : XviD 1.2.0.dev47 (UTC 2006-11-01)
Аудио
Идентификатор : 1
Формат : MPEG Audio
Версия формата : Version 1
Профиль формата : Layer 3
Режим : Joint stereo
Расширение режима : MS Stereo
Идентификатор кодека : 55
Идентификатор кодека/Подсказка : MP3
Продолжительность : 2 ч. 7 м.
Вид битрейта : Постоянный
Битрейт : 128 Кбит/сек
Каналы : 2 канала
Частота : 48,0 КГц
Метод сжатия : С потерями
Размер потока : 117 Мбайт (7%)
Выравнивание : Разделение по промежуткам
Продолжительность промежутка : 40 мс. (1,00 видеокадр)
Время предзагрузки промежутка : 500 мс.
Download / Скачать

Хотите скачать бесплатно? Зарегистрируйтесь на сайте (ссылка на регистрацию). Pirat.ca - самый быстрый торрент трекер в рунете!

Как скачивать  ·   Что такое торрент  ·   Рейтинг и ограничения

Показать сообщения:    
Ответить на тему

Текущее время: Сегодня 04:12

Часовой пояс: GMT + 4



Вы не можете начинать темы
Вы не можете отвечать на сообщения
Вы не можете редактировать свои сообщения
Вы не можете удалять свои сообщения
Вы не можете голосовать в опросах
Вы не можете прикреплять файлы к сообщениям
Вы не можете скачивать файлы

▼ Вниз