ML
     
  Уважаемый Гость!
Вы можете поддержать проект и зарегистрироваться у наших партнеров - онлайн-стратегия MyLands. При регистрации в игре Вы получите код, который сможете активировать после регистрации на pirat.ca и получить 1000 дублонов.

Ваш код:
9cfe162481db953a6549f32179d7b3900b8b8643
 
     

Чертова дюжина (Виктор Жилин) [1970 г., приключения, история, DVDRip-AVC]

Ответить на тему
 
Автор
Сообщение

Пост 13-Июн-2016 02:21

[Q] 

somik

Легенда

-Чертова дюжина-- Производство: СССР, Одесская киностудия
Режиссер: Виктор Жилин
Жанр: приключения, история
Год выпуска: 1970 г.
Продолжительность: 01:18:41
Российская премьера: 1970
В ролях: Павел Загребельный, Владимир Ячминский, Лев Прыгунов, Владимир Балон, Володя Лелетко, Петя Ластивка, Гиви Тохадзе, Ярослав Геляс-Описание: Конец XVIII века. На городской площади Лемберга (ныне — Львов), находящегося под австрийским гнетом, идут торги живым товаром. Это вызывает недовольство прибывших в город казаков во главе со студентом Максимом Зарубой, за что бунтовщиков арестовывают. Проявляя смекалку и находчивость, герои захватывают корабль, атакуют крепость — и освобождают невольников.-Сэмпл КиноПоиск
Качество видео: DVDRip-AVC
Контейнер: MKV
Видео кодек: MPEG4 AVC
Аудио кодек: AC3
Видео: 1024x544, 25 fps, 2700 Kbps
Аудио: AC3, 48000 Hz, 2ch, 256 kbps
Cубтитры: отсутствуют
Под нами — палуба. Над нами — парус!
Запорожская вольница времён Пугачёвского бунта неоднократно привлекала раньше и будет обязательно привлекать режиссёров в будущем, потому что способна вдохновить на создание и комедийно-приключенческих, и философски-серьёзных фильмов. «Чёртова дюжина» — классическая героико-романтическая лента, пронизанная самобытностью казачества. На этой самобытности держится весь фильм, демонстрируя, что по-настоящему дорого казаку: чуб, с которым он готов расстаться лишь вместе с головой; свобода: «Казак молчит в жизни раз — перед боем…»; и глубокая ненависть к рабству в любом его проявлении.
В какой-то мере вся комедийно-приключенческая и героико-романтическая атрибутика является художественным воплощением бесподобного цикла из 9 мультипликационных фильмов «Как казаки…», первый из которых — «Как казаки кулеш варили» — вышел в 1967 году, а вместе с «Чёртовой дюжиной» вышел второй выпуск — «Как казаки в футбол играли». И художественный и мультипликационные фильмы гармонично дополняют друг друга, потому что работа Виктора Жилина — это сказка, в которой главные герои — чубатые красавцы — проявляя невероятную находчивость, умудряются и с каторги сбежать, и захватить Чёрную крепость, и отбить пиратский корабль.
Фильм чисто развлекательный, но вызывает интерес именно своими харизматичными персонажами: Балабан (Павел Загребальный), Максим Заруба (Лев Прыгунов) барон фон Бюлов (Владимир Балон), Кишкомот (Владимр Ячминский). При стандартном наборе приключенческого «детско-взрослого» фильма, в нём оказалось много неожиданных и оригинальных находок, с помощью которых казаки добиваются победы. (Одна «лестница» из тел пиратов чего стоит!) Серьёзно к происходящему на экране относиться не стоит, ведь в самом начале «сказитель» уже предупредил зрителя: «Люди добрые! Не спрашивайте — правда или неправда то, что мы вам расскажем…»
Общее
Уникальный идентификатор : 184118539850775661764763639109404250195 (0x8A83F0E03C05A60887FB51B63532D053)
Полное имя : E:\Чертова дюжина\Chertova djuzhina.1970.[pirat.ca].mkv
Формат : Matroska
Версия формата : Version 2
Размер файла : 1,63 Гбайт
Продолжительность : 1 ч. 18 м.
Общий поток : 2956 Кбит/сек
Дата кодирования : UTC 2014-01-25 12:37:03
Программа кодирования : mkvmerge v5.8.0 ('No Sleep / Pillow') built on Sep 2 2012 15:37:04
Библиотека кодирования : libebml v1.2.3 + libmatroska v1.3.0
Видео
Идентификатор : 1
Формат : AVC
Формат/Информация : Advanced Video Codec
Профиль формата : [email protected]
Параметр CABAC формата : Да
Параметр ReFrames формата : 3 кадра
Идентификатор кодека : V_MPEG4/ISO/AVC
Продолжительность : 1 ч. 18 м.
Битрейт : 2700 Кбит/сек
Ширина : 1024 пикселя
Высота : 544 пикселя
Соотношение сторон : 1,882
Режим частоты кадров : Постоянный
Частота кадров : 25,000 кадров/сек
Цветовое пространство : YUV
Субдискретизация насыщенности : 4:2:0
Битовая глубина : 8 бит
Тип развёртки : Прогрессивная
Бит/(Пиксели*Кадры) : 0.194
Размер потока : 1,45 Гбайт (89%)
Библиотека кодирования : x264 core 125 r2208 d9d2288
Настройки программы : cabac=1 / ref=4 / deblock=1:-1:-1 / analyse=0x3:0x133 / me=umh / subme=9 / psy=1 / psy_rd=1.00:0.15 / mixed_ref=1 / me_range=24 / chroma_me=1 / trellis=1 / 8x8dct=1 / cqm=0 / deadzone=21,11 / fast_pskip=0 / chroma_qp_offset=-3 / threads=12 / lookahead_threads=2 / sliced_threads=0 / nr=0 / decimate=1 / interlaced=0 / bluray_compat=0 / constrained_intra=0 / bframes=8 / b_pyramid=1 / b_adapt=1 / b_bias=0 / direct=2 / weightb=1 / open_gop=0 / weightp=2 / keyint=250 / keyint_min=25 / scenecut=40 / intra_refresh=0 / rc_lookahead=50 / rc=abr / mbtree=1 / bitrate=2700 / ratetol=1.0 / qcomp=0.60 / qpmin=0 / qpmax=69 / qpstep=4 / ip_ratio=1.40 / aq=1:1.00
Default : Да
Forced : Нет
Аудио
Идентификатор : 2
Формат : AC-3
Формат/Информация : Audio Coding 3
Расширение режима : CM (complete main)
Параметр Endianness формата : Big
Идентификатор кодека : A_AC3
Продолжительность : 1 ч. 18 м.
Вид битрейта : Постоянный
Битрейт : 256 Кбит/сек
Каналы : 2 канала
Расположение каналов : Front: L R
Частота : 48,0 КГц
Частота кадров : 31,250 кадров/сек (1536 spf)
Метод сжатия : С потерями
Размер потока : 144 Мбайт (9%)
Default : Да
Forced : Нет
Download / Скачать

Хотите скачать бесплатно? Зарегистрируйтесь на сайте (ссылка на регистрацию). Pirat.ca - самый быстрый торрент трекер в рунете!

Как скачивать  ·   Что такое торрент  ·   Рейтинг и ограничения

somik ®

Легенда

26928

Пост 13-Июн-2016 02:23 (спустя 1 минута)

[Q] 

Качество низкое. Только для тех, кто помнит... aa

_________________
Всё когда-нибудь уже было... В интернете!
На форуме  [Профиль]  [ЛС] 

Пост 13-Июн-2016 09:22 (спустя 6 часов)

Топик был перенесен из форума Наше кино (Трюм) в форум Советское кино
aleksey99
 
Показать сообщения:    
Ответить на тему

Текущее время: Сегодня 06:03

Часовой пояс: GMT + 4



Вы не можете начинать темы
Вы не можете отвечать на сообщения
Вы не можете редактировать свои сообщения
Вы не можете удалять свои сообщения
Вы не можете голосовать в опросах
Вы не можете прикреплять файлы к сообщениям
Вы не можете скачивать файлы

▼ Вниз