ML
     
  Уважаемый Гость!
Вы можете поддержать проект и зарегистрироваться у наших партнеров - онлайн-стратегия MyLands. При регистрации в игре Вы получите код, который сможете активировать после регистрации на pirat.ca и получить 1000 дублонов.

Ваш код:
c89b4b6523eaac3173e9a9c062ac1a19db575961
 
     

Слуги дьявола (Александр Лейманис) [1970 г., Комедия, приключения, DVDRip] СССР, Рижская киностудия (дубляж "Ленфильм")

Ответить на тему
 
Автор
Сообщение

Пост 13-Июн-2016 10:06

[Q] 

somik

Легенда

-Слуги дьявола-- Производство: СССР, Рижская киностудия (дубляж "Ленфильм")
Режиссер: Александр Лейманис
Жанр: Комедия, приключения
Год выпуска: 1970 г.
Продолжительность: 01:19:05
Российская премьера: 17 февраля 1971
Дата выхода DVD: 10 сентября 2009, «Флагман-Трейд»
В ролях: Харальд Ритенбергс, Артур Экис, Эдуард Павулс, Лолита Цауке, Олга Дреге, Эльза Радзиня, Ингрид Андринь, Байба Индриксоне, Карл Себрис, Зигруда Стунгуре, Эвалдс Валтерс, Янис Грантыньш, Эдгар Зиле, Янис Осис, Валентинс Скулме, Волдемар Акуратерс
Роли дублировали: Александр Липов, Владимир Костин, Владимир Карпенко, Галина Чигинская, Жанна Сухопольская, ...-Описание: Историко-приключенческий фильм по произведениям Рутку Теве. Трое отважных рижан 17 века защищают родной город, осажденный шведской армией, и вступают в конфликт с отцами города, которые втайне собираются сдать Ригу шведам...-Сэмпл КиноПоиск
Качество видео: DVDRip
Контейнер: AVI
Видео кодек: XviD
Аудио кодек: AC3
Видео: 704x384 (1.83:1), 25 fps, XviD build 50 ~2014 kbps avg, 0.30 bit/pixel
Аудио: 48 kHz, AC3 Dolby Digital, 3/2 (L,C,R,l,r) ch, ~448 kbps
Cубтитры: отсутствуют
Общее
Полное имя : D:\D\Слуги дьявола\Slugi dyavola.1970.DVDRip.[pirat.ca].avi
Формат : AVI
Формат/Информация : Audio Video Interleave
Размер файла : 1,37 Гбайт
Продолжительность : 1 ч. 19 м.
Общий поток : 2473 Кбит/сек
Название фильма : Slugi dyavola.1970.DVDRip.[pirat.ca]
Программа кодирования : VirtualDubMod 1.5.10.3 | www.virtualdub-fr.org || (build 2550/release)
Видео
Идентификатор : 0
Формат : MPEG-4 Visual
Профиль формата : Advanced [email protected]
Параметр BVOP формата : 1
Параметр QPel формата : Нет
Параметр GMC формата : Без точки перехода
Параметр матрицы формата : Default (H.263)
Идентификатор кодека : XVID
Идентификатор кодека/Подсказка : XviD
Продолжительность : 1 ч. 19 м.
Битрейт : 2015 Кбит/сек
Ширина : 704 пикселя
Высота : 384 пикселя
Соотношение сторон : 1,85:1
Частота кадров : 25,000 кадров/сек
Цветовое пространство : YUV
Субдискретизация насыщенности : 4:2:0
Битовая глубина : 8 бит
Тип развёртки : Прогрессивная
Метод сжатия : С потерями
Бит/(Пиксели*Кадры) : 0.298
Размер потока : 1,11 Гбайт (81%)
Библиотека кодирования : XviD 1.2.1 (UTC 2008-12-04)
Аудио
Идентификатор : 1
Формат : AC-3
Формат/Информация : Audio Coding 3
Расширение режима : CM (complete main)
Параметр Endianness формата : Big
Идентификатор кодека : 2000
Продолжительность : 1 ч. 19 м.
Вид битрейта : Постоянный
Битрейт : 448 Кбит/сек
Каналы : 6 каналов
Channel(s)_Original : 5 каналов
Расположение каналов : Front: L C R, Side: L R
Частота : 48,0 КГц
Частота кадров : 31,250 кадров/сек (1536 spf)
Метод сжатия : С потерями
Размер потока : 253 Мбайт (18%)
Выравнивание : Разделение по промежуткам
Продолжительность промежутка : 40 мс. (1,00 видеокадр)
Время предзагрузки промежутка : 500 мс.
Download / Скачать

Хотите скачать бесплатно? Зарегистрируйтесь на сайте (ссылка на регистрацию). Pirat.ca - самый быстрый торрент трекер в рунете!

Как скачивать  ·   Что такое торрент  ·   Рейтинг и ограничения

Показать сообщения:    
Ответить на тему

Текущее время: Сегодня 22:32

Часовой пояс: GMT + 4



Вы не можете начинать темы
Вы не можете отвечать на сообщения
Вы не можете редактировать свои сообщения
Вы не можете удалять свои сообщения
Вы не можете голосовать в опросах
Вы не можете прикреплять файлы к сообщениям
Вы не можете скачивать файлы

▼ Вниз