ML
     
  Уважаемый Гость!
Вы можете поддержать проект и зарегистрироваться у наших партнеров - онлайн-стратегия MyLands. При регистрации в игре Вы получите код, который сможете активировать после регистрации на pirat.ca и получить 1000 дублонов.

Ваш код:
8dcb839cf1b47e56d6dc42d17f26b3e4822e9aee
 
     

Слуги дьявола на Чёртовой мельнице (Александр Лейманис) [1972 г., комедия, приключения, история, DVDRip] СССР, Рижская киностудия (дубляж "Ленфильм")

Ответить на тему
 
Автор
Сообщение

Пост 13-Июн-2016 10:35

[Q] 

somik

Легенда

-Слуги дьявола на Чёртовой мельнице-- Производство: СССР, Рижская киностудия (дубляж "Ленфильм")
Режиссер: Александр Лейманис
Жанр: комедия, приключения, история
Год выпуска: 1972 г.
Продолжительность: 01:26:53
Российская премьера: 5 марта 1973
Дата выхода DVD: 10 сентября 2009, «Флагман-Трейд»
В ролях: Артур Экис, Лолита Цауке, Харальд Ритенбергс, Ольга Дреге, Байба Индриксоне, Эдуард Павулс, Карл Себрис, Янис Грантыньш, Эльза Радзиня, Ингрид Андринь, Волдемар Акуратерс, Валентинс Скулме, Артур Димитерс, Астрида Кайриша, Эдгар Зиле, Люция Баумане, Эвалдс Валтерс
Роли дублировали: Жанна Сухопольская, Владимир Костин, Ирина Куберская, Александр Липов, Любовь Тищенко, ...-Описание: Продолжение фильма Рижской киностудии - "Слуги дьявола". Трое неразлучных друзей, прозванных "Слугами дьявола", выкрадывают ключи от Риги, которые должны были быть переданы шведскому королю в знак полной капитуляции...-Сэмпл КиноПоиск
Качество видео: DVDRip
Контейнер: AVI
Видео кодек: XviD
Аудио кодек: AC3
Видео: 704x384 (1.83:1), 25 fps, XviD build 50 ~1794 kbps avg, 0.27 bit/pixel
Аудио: 48 kHz, AC3 Dolby Digital, 3/2 (L,C,R,l,r) ch, ~448 kbps
Cубтитры: отсутствуют
Общее
Полное имя : D:\D\Слуги дьявола\Slugi dyavola na chertovoj melnice.1972.DVDRip.[pirat.ca].avi
Формат : AVI
Формат/Информация : Audio Video Interleave
Размер файла : 1,37 Гбайт
Продолжительность : 1 ч. 26 м.
Общий поток : 2253 Кбит/сек
Название фильма : Slugi dyavola na chertovoj melnice.1972.DVDRip.[pirat.ca]
Программа кодирования : VirtualDubMod 1.5.10.3 | www.virtualdub-fr.org || (build 2550/release)
Видео
Идентификатор : 0
Формат : MPEG-4 Visual
Профиль формата : Advanced [email protected]
Параметр BVOP формата : 1
Параметр QPel формата : Нет
Параметр GMC формата : Без точки перехода
Параметр матрицы формата : Default (H.263)
Идентификатор кодека : XVID
Идентификатор кодека/Подсказка : XviD
Продолжительность : 1 ч. 26 м.
Битрейт : 1795 Кбит/сек
Ширина : 704 пикселя
Высота : 384 пикселя
Соотношение сторон : 1,85:1
Частота кадров : 25,000 кадров/сек
Цветовое пространство : YUV
Субдискретизация насыщенности : 4:2:0
Битовая глубина : 8 бит
Тип развёртки : Прогрессивная
Метод сжатия : С потерями
Бит/(Пиксели*Кадры) : 0.266
Размер потока : 1,09 Гбайт (80%)
Библиотека кодирования : XviD 1.2.1 (UTC 2008-12-04)
Аудио
Идентификатор : 1
Формат : AC-3
Формат/Информация : Audio Coding 3
Расширение режима : CM (complete main)
Параметр Endianness формата : Big
Идентификатор кодека : 2000
Продолжительность : 1 ч. 26 м.
Вид битрейта : Постоянный
Битрейт : 448 Кбит/сек
Каналы : 6 каналов
Channel(s)_Original : 5 каналов
Расположение каналов : Front: L C R, Side: L R
Частота : 48,0 КГц
Частота кадров : 31,250 кадров/сек (1536 spf)
Метод сжатия : С потерями
Размер потока : 278 Мбайт (20%)
Выравнивание : Разделение по промежуткам
Продолжительность промежутка : 40 мс. (1,00 видеокадр)
Время предзагрузки промежутка : 500 мс.
Download / Скачать

Хотите скачать бесплатно? Зарегистрируйтесь на сайте (ссылка на регистрацию). Pirat.ca - самый быстрый торрент трекер в рунете!

Как скачивать  ·   Что такое торрент  ·   Рейтинг и ограничения

Показать сообщения:    
Ответить на тему

Текущее время: Сегодня 04:14

Часовой пояс: GMT + 4



Вы не можете начинать темы
Вы не можете отвечать на сообщения
Вы не можете редактировать свои сообщения
Вы не можете удалять свои сообщения
Вы не можете голосовать в опросах
Вы не можете прикреплять файлы к сообщениям
Вы не можете скачивать файлы

▼ Вниз