ML
     
  Уважаемый Гость!
Вы можете поддержать проект и зарегистрироваться у наших партнеров - онлайн-стратегия MyLands. При регистрации в игре Вы получите код, который сможете активировать после регистрации на pirat.ca и получить 1000 дублонов.

Ваш код:
4fbd9898b6f10799a3e8edf60f31febd2bc15453
 
     

Летучая мышь / Denevér bőregér (Ян Фрид) [1979 г., мюзикл, комедия, DVDRip-AVC]

Ответить на тему
 
Автор
Сообщение

Пост 06-Июл-2016 17:41

[Q] 

somik

Легенда

-Летучая мышь / Denevér bőregér-- Производство: СССР, Ленфильм
Год выпуска: 1979 г.
Жанр: мюзикл, комедия
Продолжительность: 02:12:38
Российская премьера: 4 марта 1979
Дата выхода DVD: 16 февраля 2010, «Lizard Cinema Trade»
Перевод: Не требуется
Режиссер: Ян Фрид-В ролях: Юрий Соломин, Людмила Максакова, Лариса Удовиченко, Виталий Соломин, Игорь Дмитриев, Олег Видов, Ольга Волкова, Гликерия Богданова-Чеснокова, Владимир Ляховецкий, Юрий Васильев, Евгений Весник, Иван Любезнов, Сергей Филиппов-Описание: Одна из самых известных классических оперетт. Ее автора, Иоганна Штрауса, сначала Вена, а потом и весь мир называли Королем Вальса. Грандиозный костюмированный бал, море шуток, веселья и... музыка! В этом двухсерийном фильме занят великолепный ансамбль драматических актеров. Среди них: Людмила Максакова, братья Юрий и Виталий Соломины, легенда советской оперетты - Гликерия Богданова-Чеснокова. Сценарий фильма написан по мотивам либретто Николая Эрдмана и Михаила Вольпина. Жена узнает о том, что муж постоянно ей изменяет. Их общий друг и знакомый Фальк решает подшутить над бедной семейной парой. Своей служанке, мечтающей стать актрисой, он дает пригласительный билет на бал-маскарад и костюм «летучей мыши», чтобы та «охмурила» незадачливого ловеласа. Этот разговор слышит жена и принимает решение тоже отправиться на бал, чтобы снова влюбить в себя собственного мужа, но только под маской.-
Качество видео: DVDRip-AVC
Контейнер: MKV
Видео кодек: MPEG4 AVC
Аудио кодек: AC3
Видео: MPEG-4 AVC, 1749 Кбит/с, 720x528, 23,976 (24000/1001) fps
Аудио: AC3, 6 ch, 448 Кбит/с, 48,0 kHz
Cубтитры: отсутствуют
Баронесса! пошла вон! (с)
Потрясающая, яркая комедия с великолепными актерами! Тут целый «сонм» блестящих актеров — Соломины, Максакова, Видов и другие.
Легкость, блеск, никакой суеты — вот он бал-маскарад! Маски здесь, маски там, веселье, шампанское, танцы. Ну что еще нужно? А нужна легкая интрига, когда муж изменяет своей жене со своей женой, когда служанка предстает баронессой, когда один сидит в камере за другого, который в это время веселится на празднике.
Смотрите все и радуйтесь вместе с героями!
Я бы поставила все 100
10 из 10
Одна из наиболее удачных экранизаций в жанре оперетты. Потрясающие актёры, гениальная режиссура, неповторимый эмоциональный подъём. Вот это называется «Кинематограф» с большой буквы.
Иногда посмотришь фильм и начинаешь копаться: плюсы, минусы… А после просмотра этого фильма хочется петь, танцевать, хочется жить! Он даёт колоссальный заряд энергии. Разве можно не восхищаться Юрием и Виталием Соломиными, Игорем Дмитриевым, Ларисой Удовиченко, Людмилой Максаковой, Гликерией Богдановой-Чесноковой? Это искусство. Оно захватывает настолько, что преображает саму жизнь. А музыка Иоганна Штрауса, которая лежит в основе этого чуда, заставляет кровь быстрее бежать по жилам.
Невозможно, чтобы такие фильмы забывались. Нельзя допустить, чтобы их заменили бездарные ленты, нудные сериалы, американские боевики, слюнявые мелодрамы. Нельзя забывать классику. Как бы там ни было, а в ней содержится огромный пласт ценностей, о которых мы начали забывать. В них — подлинная культуре, великий труд и огромная любовь к жизни.
10 из 10
Общее
Уникальный идентификатор : 252813955624234334293968602238297815595 (0xBE32325E2E081CDBA6B51F6B0A97BA2B)
Полное имя : D:\D\Летучая мышь\Letuchaya mysh..(2.serii.iz.2).1979.DVDRip-AVC.[pirat.ca].mkv
Формат : Matroska
Версия формата : Version 2
Размер файла : 2,04 Гбайт
Продолжительность : 2 ч. 12 м.
Общий поток : 2199 Кбит/сек
Дата кодирования : UTC 2011-08-21 19:12:06
Программа кодирования : mkvmerge v4.6.0 ('Still Crazy After All These Years') сборка от Apr 1 2011 21:01:49
Библиотека кодирования : libebml v1.2.0 + libmatroska v1.1.0
Видео
Идентификатор : 1
Формат : AVC
Формат/Информация : Advanced Video Codec
Профиль формата : [email protected]
Параметр CABAC формата : Да
Параметр ReFrames формата : 4 кадра
Идентификатор кодека : V_MPEG4/ISO/AVC
Продолжительность : 2 ч. 12 м.
Битрейт : 1749 Кбит/сек
Ширина : 720 пикселей
Высота : 528 пикселей
Соотношение сторон : 4:3
Режим частоты кадров : Постоянный
Частота кадров : 25,000 кадров/сек
Цветовое пространство : YUV
Субдискретизация насыщенности : 4:2:0
Битовая глубина : 8 бит
Тип развёртки : Прогрессивная
Бит/(Пиксели*Кадры) : 0.184
Размер потока : 1,58 Гбайт (78%)
Библиотека кодирования : x264 core 115 r1937 aa21558
Настройки программы : cabac=1 / ref=2 / deblock=1:-1:-1 / analyse=0x3:0x113 / me=hex / subme=7 / psy=1 / psy_rd=1.00:0.10 / mixed_ref=0 / me_range=16 / chroma_me=1 / trellis=1 / 8x8dct=1 / cqm=0 / deadzone=21,11 / fast_pskip=1 / chroma_qp_offset=-3 / threads=6 / sliced_threads=0 / nr=0 / decimate=1 / interlaced=0 / bluray_compat=0 / constrained_intra=0 / bframes=2 / b_pyramid=2 / b_adapt=2 / b_bias=0 / direct=3 / weightb=1 / open_gop=0 / weightp=1 / keyint=250 / keyint_min=25 / scenecut=40 / intra_refresh=0 / rc_lookahead=30 / rc=2pass / mbtree=1 / bitrate=1749 / ratetol=1.0 / qcomp=0.60 / qpmin=15 / qpmax=47 / qpstep=3 / cplxblur=20.0 / qblur=0.5 / ip_ratio=1.40 / aq=1:1.10
Default : Да
Forced : Нет
Аудио
Идентификатор : 2
Формат : AC-3
Формат/Информация : Audio Coding 3
Расширение режима : CM (complete main)
Параметр Endianness формата : Big
Идентификатор кодека : A_AC3
Продолжительность : 2 ч. 12 м.
Вид битрейта : Постоянный
Битрейт : 448 Кбит/сек
Каналы : 6 каналов
Расположение каналов : Front: L C R, Side: L R, LFE
Частота : 48,0 КГц
Частота кадров : 31,250 кадров/сек (1536 spf)
Метод сжатия : С потерями
Размер потока : 425 Мбайт (20%)
Default : Да
Forced : Нет
Download / Скачать

Хотите скачать бесплатно? Зарегистрируйтесь на сайте (ссылка на регистрацию). Pirat.ca - самый быстрый торрент трекер в рунете!

Как скачивать  ·   Что такое торрент  ·   Рейтинг и ограничения

Пост 06-Июл-2016 20:31 (спустя 2 часа 50 минут)

Топик был перенесен из форума Зарубежное Кино (Трюм) в форум Советское кино
aleksey99
 
Показать сообщения:    
Ответить на тему

Текущее время: Сегодня 19:55

Часовой пояс: GMT + 4



Вы не можете начинать темы
Вы не можете отвечать на сообщения
Вы не можете редактировать свои сообщения
Вы не можете удалять свои сообщения
Вы не можете голосовать в опросах
Вы не можете прикреплять файлы к сообщениям
Вы не можете скачивать файлы

▼ Вниз