ML
     
  Уважаемый Гость!
Вы можете поддержать проект и зарегистрироваться у наших партнеров - онлайн-стратегия MyLands. При регистрации в игре Вы получите код, который сможете активировать после регистрации на pirat.ca и получить 1000 дублонов.

Ваш код:
cc3be08b7507661c03e0a2f582d0da3a659ea55a
 
     

Любовь к трем апельсинам (Виктор Титов, Юрий Богатыренко) [1970 г., музыкальная сказка, DVDRip]

Ответить на тему
 
Автор
Сообщение

Пост 09-Июл-2016 20:42

[Q] 

somik

Легенда

-Любовь к трем апельсинам-- Производство: СССР, Болгария, ТО «Телефильм» кст «Мосфильм», Софийская студия (Болгария)
Режиссер: Виктор Титов, Юрий Богатыренко
Жанр: музыкальная сказка
Год выпуска: 1970 г.
Продолжительность: 01:58:15
Российская премьера: 12 февраля 1971
В ролях: Владимир Басов — Маэстро Дапертутто, Сергей Мартинсон — король (вокал — Е. Владимиров), Борис Амарантов — Тартальо, меланхоличный принц (вокал — П. Куршумов), Иван Цветарский — Панталоне, советник короля (вокал — Н. Василев), Андрей Николаев — Труффальдино (вокал — Г. Чолаков), Илья Рутберг — Леандр (вокал — Н. Смочевский), Светлана Орлова — Клариче (вокал — А. Милчева), Лариса Трембовельская — Фата Моргана (вокал — Л. Барева), Ф. Бастунопулос — маг Челий (вокал — Н. Николаев), Ирина Печерникова — Смеральдина (вокал — Т. Христова), Наталья Седых — принцесса Нинетта (вокал — В. Александрова), Борис Сичкин — кухарка (вокал — Н. Павлов), Юрий Медведев — Сценариус, П. Колбасин — живописец-Описание: Страдающий меланхолией Принц, чтобы излечиться, пускается в поисках трех апельсинов в опасное и увлекательное путешествие. В одном из апельсинов он находит свою избранницу Аделит и навсегда излечивается от хандры.-Сэмпл КиноПоиск
Качество видео: DVDRip
Контейнер: AVI
Видео кодек: DivX
Аудио кодек: AC3
Видео: 704x528 (1.33:1), 25 fps, DivX Codec 5.2.1 alpha ~1800 kbps avg, 0.19 bit/pixel
Аудио: 48 kHz, AC3 Dolby Digital, 1/0 (C) ch, ~448 kbps
Cубтитры: отсутствуют
Даже за апельсины интриги…
На одном околокиношном сайте увидел список лучших фильмов, которые не показывали в кинотеатрах. Среди них оказался фильм «Любовь к трем апельсинам» 1994. Фильм того года я не смог найти, но нашел 1970. Чему ничуть не жалею.
По сюжету Принц Тартальо страдающий меланхолией почти присмерти, и ничего его не радует. Даже придворный люд не может его рассмешить. Чтоб избавится хандры Принц с дворцовым шутом Труфальдино отправляется в опасное путешествие в поисках трех апельсинов…
Зритель в первую очередь видит труппу актеров на репетиции, перед выступлением. Которую уже заждались зрители, но актеры еще сами не знают какую историю им рассказать. Маэстро и его помощник Сценариус на ходу придумывают сюжет будущей истории и раздают все роли. Где актеры уже на сцене создают клубок истории от которой даже актеры (трагики, комики, лирики, Маэстро, Сценариус, Чародей), с замиранием сердца наблюдают как будет развиваться судьба Принца. Найдет ли он желанные апельсины, проведёт злую Кухарку хранящую их. Не даст ли себя обмануть племяннице короля с Министром и помогающей дворцовым интриганам ведьме Фате Моргане.
Фильм представляет собой сплав драмы с опереттой. Где актеры за кулисами это как массовка, следящая за событиями происходящими на сцене. Где сюжет рассказывается словами оперы. Создается ощущение что ты сразу смотришь что происходит за кулисами, и сними же как зритель с интересом наблюдаешь как развивается сюжет уже на главной оперной сцене.
В этом фильме задействованы многие знаменитые и заслуженные актеры, драматического и оперного искусства. Как раз находящиеся на пике творческой формы Если неискушенный зритель с оперой мало знаком и больше понимает драматический язык, то этот фильм поможет лучше понять и войти в мир оперы.
Общее
Полное имя : E:\Любовь к трем апельсинам\Lubov k trem apelsinam.1970.DVDRip.[pirat.ca]\Lubov k trem apelsinam.1970.DVDRip-1.[pirat.ca].avi
Формат : AVI
Формат/Информация : Audio Video Interleave
Размер файла : 966 Мбайт
Продолжительность : 59 м.
Общий поток : 2258 Кбит/сек
Название фильма : Lubov k trem apelsinam.1970.DVDRip-1.[pirat.ca]
Программа кодирования : VirtualDubModRus 1.5.10.2 (build 2542/release)
Видео
Идентификатор : 0
Формат : MPEG-4 Visual
Параметр BVOP формата : 1
Параметр QPel формата : Нет
Параметр GMC формата : Без точки перехода
Параметр матрицы формата : Default (H.263)
Режим смешивания : Сжатый битовый поток
Идентификатор кодека : DX50
Идентификатор кодека/Подсказка : DivX 5
Продолжительность : 59 м.
Битрейт : 1801 Кбит/сек
Ширина : 704 пикселя
Высота : 528 пикселей
Соотношение сторон : 4:3
Частота кадров : 25,000 кадров/сек
Цветовое пространство : YUV
Субдискретизация насыщенности : 4:2:0
Битовая глубина : 8 бит
Тип развёртки : Прогрессивная
Метод сжатия : С потерями
Бит/(Пиксели*Кадры) : 0.194
Размер потока : 770 Мбайт (80%)
Библиотека кодирования : DivX 5.2.1 Alpha (UTC 2004-09-08)
Аудио
Идентификатор : 1
Формат : AC-3
Формат/Информация : Audio Coding 3
Расширение режима : CM (complete main)
Параметр Endianness формата : Big
Идентификатор кодека : 2000
Продолжительность : 59 м.
Вид битрейта : Постоянный
Битрейт : 448 Кбит/сек
Каналы : 1 канал
Расположение каналов : Front: C
Частота : 48,0 КГц
Частота кадров : 31,250 кадров/сек (1536 spf)
Метод сжатия : С потерями
Размер потока : 192 Мбайт (20%)
Выравнивание : Соединение по промежуткам
Продолжительность промежутка : 40 мс. (1,00 видеокадр)
Время предзагрузки промежутка : 512 мс.
Общее
Полное имя : E:\Любовь к трем апельсинам\Lubov k trem apelsinam.1970.DVDRip.[pirat.ca]\Lubov k trem apelsinam.1970.DVDRip-2.[pirat.ca].avi
Формат : AVI
Формат/Информация : Audio Video Interleave
Размер файла : 944 Мбайт
Продолжительность : 58 м.
Общий поток : 2259 Кбит/сек
Программа кодирования : VirtualDubModRus 1.5.10.2 (build 2542/release)
Библиотека кодирования : VirtualDubMod build 2542/release
Видео
Идентификатор : 0
Формат : MPEG-4 Visual
Параметр BVOP формата : 1
Параметр QPel формата : Нет
Параметр GMC формата : Без точки перехода
Параметр матрицы формата : Default (H.263)
Режим смешивания : Сжатый битовый поток
Идентификатор кодека : DX50
Идентификатор кодека/Подсказка : DivX 5
Продолжительность : 58 м.
Битрейт : 1801 Кбит/сек
Ширина : 704 пикселя
Высота : 528 пикселей
Соотношение сторон : 4:3
Частота кадров : 25,000 кадров/сек
Цветовое пространство : YUV
Субдискретизация насыщенности : 4:2:0
Битовая глубина : 8 бит
Тип развёртки : Прогрессивная
Метод сжатия : С потерями
Бит/(Пиксели*Кадры) : 0.194
Размер потока : 753 Мбайт (80%)
Библиотека кодирования : DivX 5.2.1 Alpha (UTC 2004-09-08)
Аудио
Идентификатор : 1
Формат : AC-3
Формат/Информация : Audio Coding 3
Расширение режима : CM (complete main)
Параметр Endianness формата : Big
Идентификатор кодека : 2000
Продолжительность : 58 м.
Вид битрейта : Постоянный
Битрейт : 448 Кбит/сек
Каналы : 1 канал
Расположение каналов : Front: C
Частота : 48,0 КГц
Частота кадров : 31,250 кадров/сек (1536 spf)
Метод сжатия : С потерями
Размер потока : 187 Мбайт (20%)
Выравнивание : Соединение по промежуткам
Продолжительность промежутка : 40 мс. (1,00 видеокадр)
Время предзагрузки промежутка : 512 мс.
Download / Скачать

Хотите скачать бесплатно? Зарегистрируйтесь на сайте (ссылка на регистрацию). Pirat.ca - самый быстрый торрент трекер в рунете!

Как скачивать  ·   Что такое торрент  ·   Рейтинг и ограничения

Показать сообщения:    
Ответить на тему

Текущее время: Сегодня 05:10

Часовой пояс: GMT + 4



Вы не можете начинать темы
Вы не можете отвечать на сообщения
Вы не можете редактировать свои сообщения
Вы не можете удалять свои сообщения
Вы не можете голосовать в опросах
Вы не можете прикреплять файлы к сообщениям
Вы не можете скачивать файлы

▼ Вниз