ML
     
  Уважаемый Гость!
Вы можете поддержать проект и зарегистрироваться у наших партнеров - онлайн-стратегия MyLands. При регистрации в игре Вы получите код, который сможете активировать после регистрации на pirat.ca и получить 1000 дублонов.

Ваш код:
c3360d664ceb84802c84b88ed062a5d134e2ba97
 
     

Учитель пения (Наум Бирман) [1972 г., мюзикл, комедия, семейный, DVDRip]

Ответить на тему
 
Автор
Сообщение

Пост 10-Июл-2016 02:58

[Q] 

somik

Легенда

-Учитель пения-- Производство: СССР, Ленфильм
Режиссер: Наум Бирман
Жанр: мюзикл, комедия, семейный
Год выпуска: 1972 г.
Продолжительность: 01:20:56
Российская премьера: 23 апреля 1973
Дата выхода DVD: 3 февраля 2009, «Азимут»
В ролях: Андрей Попов, Людмила Иванова, Ирина Алфёрова, Константин Кошкин, Евгений Евстигнеев, Людмила Аринина, Александр Демьяненко, Георгий Штиль, Андрей Дмитриев, Игорь Богданов, Яков Степанов, Миша Ерохин, Стасик Трифонов, Вадик Симонов, Людмила (Мила) Васютинская-Описание: Ефрем Николаевич Соломатин — остроумный, веселый человек. Он бесконечно любит музыку и детей, а мечтает он об организации школ с музыкальным уклоном, в которых можно воспитать в учениках любовь к музыке, к жизни, к людям…-Сэмпл КиноПоиск
Качество видео: DVDRip
Контейнер: AVI
Видео кодек: DivX
Аудио кодек: AC3
Видео: 704x352 (2.00:1), 25 fps, DivX Codec 6.8.3 ~2214 kbps avg, 0.36 bit/pixel
Аудио: 48 kHz, AC3 Dolby Digital, 2/0 (L,R) ch, ~192 kbps
Cубтитры: отсутствуют
Старое доброе-доброе советское кино
Руководителю школьного детского хора Ефрему Николаевичу (Андрей Попов) дети подарили щенка. Не без сопротивления, но семья Ефрема Николаевича — супруга Клавдия Петровна (Людмила Иванова), сын Дима (Константин Кошкин) и дочь Тамара (Ирина Алфёрова) — маленькую собаку в доме приняла. Тинг (так назвали пса) рос в музыкальной среде — неотлучно находясь при своём хозяине, он не пропустил ни одной репетиции школьного хора. Повышалось и мастерство самого хора, руководимого энтузиастом своего дела Ефремом Николаевичем. Между педагогом и завучем (Людмила Аринина) состоялся разговор, в котором учитель пения предложил придать школе статус «с певческим уклоном». Но чтобы эту идею претворить в жизнь, Ефрему Николаевичу со своими подопечными необходимо победить в приближающемся конкурсе. И вроде бы, для победы имеются все предпосылки, но случается непредвиденное: отец Андрюши, солиста хора, забирает сына в математический интернат. Остаться накануне конкурса без солиста — что может быть хуже для хора!? Ефрем Николаевич пробует подыскать Андрюше замену, но найти равноценную не удаётся. А тем временем случается ещё одно несчастье — пропадает Тинг. Семья учителя пения накануне получила новую квартиру, и пёс, если он найдётся, придёт на старую. Ефрему Николаевичу, привязавшемуся к своему меньшему другу, нужно что-то придумать…
«Учитель пения» — добрая лирическая музыкальная комедия Наума Бирмана ("Хроника пикирующего бомбардировщика»), приятная и романтичная, вызывающая ностальгические чувства — впервые этот фильм я увидел ещё в детстве. Постановщику удалось — и весьма обаятельно, на мой взгляд, — свести воедино музыкальность, добрый юмор, фильм для детей и «собачью» тему ("Ко мне, Мухтар!», «Белый Бим…», и т. д.). А блестящий актёрский ансамбль добавил всему этому дополнительного шарма.
Говоря об актёрах, начать стоит, конечно, с Андрея Попова — замечательного исполнителя главной роли: образ учителя подан Поповым столь точно и гармонично, что создаётся полное ощущение настоящего реального человека Ефрема Николаевича Соломатина, а не актёра, его имитирующего. По-моему, это высшая степень мастерства. Из множества эпизодов картины с участием актёра можно вспомнить, например, такой: учитель пения отбирает у хулиганистого вида подростков во дворе гитару, и показывает им, как нужно петь — душевно, проникновенно… в этом эпизоде Попов неподражаем! В небольших, но ярких сценах в фильме участвуют ещё два великих актёра того времени — Евгений Евстигнеев и Александр Демьяненко. Оба вовсю использовали своё незаурядное комедийное дарование — эти сцены попросту невозможно смотреть без смеха! В «Учителе пения» свою первую полноценную кинороль сыграла Ирина Алфёрова. Будучи 20-летней студенткой, Ирина тайком от преподавателей (студентам-театралам запрещали сниматься) ездила на съёмки из Москвы в Ленинград. В картине героиня Алфёровой — взбалмошная красавица, которую одолевают многочисленные поклонники. Добрым словом нужно помянуть и несравненную Людмилу Иванову, и убедительную Людмилу Аринину, и комичного Георгия Штиля (парикмахер, отец Андрюши), и всех юных героев, так замечательно и звонко поющих.
Отдельно хочется сказать о композиторе Вениамине Баснере — именно его работа делает фильм столь музыкальным и придаёт ему бодрое настроение мажорной мелодией песни «Щенок по имени Пёс» (на стихи А. Галича). Кстати, блуждая по городу в поисках хозяина, Тинг приходит как раз в те места, откуда слышатся звуки музыки — то к входу в филармонию, где настраиваются скрипачи, то к духовому оркестру военных моряков, идущих маршем по улицам Выборга (именно там снимался фильм)… Можно сказать, что музыка подобна жизненному маяку, ориентиру, к которому можно и нужно стремиться.
В заключении скажу, что «Учитель пения» — это, конечно, не безупречное кино, и не шедевр мирового кинематографа, но зато… сколько же в этом фильме чувства, сколько в нём доброты!
8,5 из 10
Общее
Полное имя : J:\Учитель пения\Uchitel` penija.DVDrip.[pirat.ca].avi
Формат : AVI
Формат/Информация : Audio Video Interleave
Размер файла : 1,37 Гбайт
Продолжительность : 1 ч. 20 м.
Общий поток : 2417 Кбит/сек
Название фильма : Uchitel` penija.DVDrip.[pirat.ca]
Программа кодирования : VirtualDubModRus 1.5.10.2 (build 2542/release)
Видео
Идентификатор : 0
Формат : MPEG-4 Visual
Параметр BVOP формата : Да
Параметр QPel формата : Нет
Параметр GMC формата : Без точки перехода
Параметр матрицы формата : Default (H.263)
Идентификатор кодека : DX50
Идентификатор кодека/Подсказка : DivX 5
Продолжительность : 1 ч. 20 м.
Битрейт : 2215 Кбит/сек
Ширина : 704 пикселя
Высота : 352 пикселя
Соотношение сторон : 2,000
Частота кадров : 25,000 кадров/сек
Цветовое пространство : YUV
Субдискретизация насыщенности : 4:2:0
Битовая глубина : 8 бит
Тип развёртки : Прогрессивная
Метод сжатия : С потерями
Бит/(Пиксели*Кадры) : 0.358
Размер потока : 1,25 Гбайт (92%)
Библиотека кодирования : DivX 6.8.3-6.8.4 (UTC 2008-06-07)
Аудио
Идентификатор : 1
Формат : AC-3
Формат/Информация : Audio Coding 3
Расширение режима : CM (complete main)
Параметр Endianness формата : Big
Идентификатор кодека : 2000
Продолжительность : 1 ч. 20 м.
Вид битрейта : Постоянный
Битрейт : 192 Кбит/сек
Каналы : 2 канала
Расположение каналов : Front: L R
Частота : 48,0 КГц
Частота кадров : 31,250 кадров/сек (1536 spf)
Метод сжатия : С потерями
Размер потока : 111 Мбайт (8%)
Выравнивание : Соединение по промежуткам
Продолжительность промежутка : 40 мс. (1,00 видеокадр)
Время предзагрузки промежутка : 512 мс.
Download / Скачать

Хотите скачать бесплатно? Зарегистрируйтесь на сайте (ссылка на регистрацию). Pirat.ca - самый быстрый торрент трекер в рунете!

Как скачивать  ·   Что такое торрент  ·   Рейтинг и ограничения

Пост 10-Июл-2016 08:46 (спустя 5 часов)

Топик был перенесен из форума Наше кино (Трюм) в форум Советское кино
aleksey99
 
Показать сообщения:    
Ответить на тему

Текущее время: Сегодня 10:09

Часовой пояс: GMT + 4



Вы не можете начинать темы
Вы не можете отвечать на сообщения
Вы не можете редактировать свои сообщения
Вы не можете удалять свои сообщения
Вы не можете голосовать в опросах
Вы не можете прикреплять файлы к сообщениям
Вы не можете скачивать файлы

▼ Вниз