ML
     
  Уважаемый Гость!
Вы можете поддержать проект и зарегистрироваться у наших партнеров - онлайн-стратегия MyLands. При регистрации в игре Вы получите код, который сможете активировать после регистрации на pirat.ca и получить 1000 дублонов.

Ваш код:
cc3be08b7507661c03e0a2f582d0da3a659ea55a
 
     

Учитель танцев (Татьяна Лукашевич) [1952 г., музыкальная комедия, DVDRip-AVC]

Ответить на тему
 
Автор
Сообщение

Пост 10-Июл-2016 04:29

[Q] 

somik

Легенда

-Учитель танцев-- Производство: СССР, Мосфильм
Режиссер: Татьяна Лукашевич
Жанр: музыкальная комедия
Год выпуска: 1952 г.
Продолжительность: 02:14:52
Российская премьера: 11 августа 1952
В ролях: Владимир Зельдин, Марк Перцовский, Любовь Добржанская, Татьяна Алексеева, Михаил Майоров, Федор Савостьянов, Георгий Сорокин, Борис Лесовой, Владимир Благообразов, Яков Халецкий-Описание: Юный Альдемаро из обедневшего дворянского рода любит дочь богатого и знатного синьора. Под вымышленным именем в качестве учителя танцев герой поступает в дом отца возлюбленной…-Сэмпл КиноПоиск
Качество видео: DVDRip-AVC
Контейнер: MKV
Видео кодек: MPEG4 AVC
Аудио кодек: AC3
Видео: 1250 Кбит/сек, [email protected], 25,000 кадров/сек
Аудио: AC3, 2.0 канала, 192 Кбит/с, 48,0 КГц
Cубтитры: отсутствуют
IMDb: 7.30 / 10
Огонь любви горит незримо…
«Учитель танцев» — телевизионная версия спектакля Центрального театра Советской армии по одноименной пьесе Лопе де Вега. Музыкальный спектакль был впервые поставлен на русском языке (в переводе Татьяны Щепкиной-Куперник) в 1946 году в Центральном академическом театре Российской армии. Среди граждан СССР, измученных тяготами войны, жизнерадостная пьеса пользовалась огромной популярностью. Телевизионная версия спектакля была записана в 1952 году. Роль учителя танцев Альдемаро стала визитной карточкой Владимира Зельдина: именно для её исполнения он был приглашён в театр.
Следует отметить, что в послевоенные годы съёмки игровых картин не поощрялись (за 1951-1952 год на «Мосфильме» были выпущены буквально единицы художественных фильмов) и недостаток фильмов восполняли за счёт съёмок популярных театральных постановок, в число которых входил и «Учитель танцев». Режиссёром фильма стала Татьяна Лукашевич, поставившая другую популярную музыкальную комедию — «Свадьба с приданым». Многим советским критикам фильм казался слишком легкомысленным.
Другие расценили попытку перенести спектакль на экран как неудачную: «Пытаясь использовать ту любовь, которую проявляют советские зрители к лучшим классическим и современным комедийным спектаклям, кинематографисты зафиксировали на пленку «Учителя танцев» в театре ЦТСА… Спектакль «Учитель танцев» оказался на плёнке затянутым, нудным. Длинные монтажные куски с актёрами, выговаривающими свой текст, были в непримиримом противоречии с интенсивным внутрикадровым движением».
А между тем, в 1952 году фильм занял второе место в советском прокате: его посмотрели 27 миллионов 900 тысяч зрителей! Говорить о самом фильме-спектакле можно исключительно в превосходных эпитетах: «прекрасный», «замечательный», «чудесный», «неповторимый». Можно добавить ещё десяток прилагательных, только зачем? Лучше чем сказал сам Де Вега, — сказать невозможно!
Как фильм «Собака на сене» (по одноимённому произведению Лопе Де Вега) можно смотреть бесконечное количество раз, так и на Альдемаро в исполнении Владимира Михайловича Зельдина можно исключительно любоваться. Поистине великий актёр, который и в жизни был весёлым и искромётным, достаточно вспомнить, что он говорил по поводу фильма: «Художникам на „Мосфильме“ пришло в голову сделать пол стеклянным. Но разве можно на нём танцевать? Его никакая канифоль не берёт! Нет точки опоры. И приходилось преодолевать это скольжение, в то время как хотелось получать от танцев удовольствие.»
Великая благодарность Татьяне Николаевне Лукашевич, за то, что подарила зрителю настоящее театральное чудо!
Общее
Уникальный идентификатор : 223137554748584668974258708735336726925 (0xA7DEBAD6D8270404972E0256CE01418D)
Полное имя : J:\Учитель танцев\Uchitelj tancev.1952.DVDRip-AVC.[pirat.ca].mkv
Формат : Matroska
Версия формата : Version 4 / Version 2
Размер файла : 1,36 Гбайт
Продолжительность : 2 ч. 14 м.
Режим общего битрейта : Переменный
Общий поток : 1444 Кбит/сек
Дата кодирования : UTC 2015-02-14 13:03:27
Программа кодирования : mkvmerge v7.6.0 ('Garden of Dreams') 64bit built on Feb 8 2015 13:04:34
Библиотека кодирования : libebml v1.3.1 + libmatroska v1.4.2
Видео
Идентификатор : 1
Формат : AVC
Формат/Информация : Advanced Video Codec
Профиль формата : [email protected]
Параметр CABAC формата : Да
Параметр ReFrames формата : 2 кадра
Идентификатор кодека : V_MPEG4/ISO/AVC
Продолжительность : 2 ч. 14 м.
Вид битрейта : Переменный
Битрейт : 1250 Кбит/сек
Максимальный битрейт : 14,0 Мбит/сек
Ширина : 696 пикселей
Высота : 572 пикселя
Соотношение сторон : 4:3
Режим частоты кадров : Постоянный
Частота кадров : 25,000 кадров/сек
Цветовое пространство : YUV
Субдискретизация насыщенности : 4:2:0
Битовая глубина : 8 бит
Тип развёртки : Прогрессивная
Бит/(Пиксели*Кадры) : 0.126
Размер потока : 1,18 Гбайт (87%)
Язык : Russian
Default : Да
Forced : Нет
Аудио
Идентификатор : 2
Формат : AC-3
Формат/Информация : Audio Coding 3
Расширение режима : CM (complete main)
Параметр Endianness формата : Big
Идентификатор кодека : A_AC3
Продолжительность : 2 ч. 14 м.
Вид битрейта : Постоянный
Битрейт : 192 Кбит/сек
Каналы : 2 канала
Расположение каналов : Front: L R
Частота : 48,0 КГц
Частота кадров : 31,250 кадров/сек (1536 spf)
Метод сжатия : С потерями
Размер потока : 185 Мбайт (13%)
Default : Да
Forced : Нет
Download / Скачать

Хотите скачать бесплатно? Зарегистрируйтесь на сайте (ссылка на регистрацию). Pirat.ca - самый быстрый торрент трекер в рунете!

Как скачивать  ·   Что такое торрент  ·   Рейтинг и ограничения

Пост 10-Июл-2016 08:48 (спустя 4 часа)

Топик был перенесен из форума Наше кино (Трюм) в форум Советское кино
aleksey99
 
Показать сообщения:    
Ответить на тему

Текущее время: Сегодня 05:07

Часовой пояс: GMT + 4



Вы не можете начинать темы
Вы не можете отвечать на сообщения
Вы не можете редактировать свои сообщения
Вы не можете удалять свои сообщения
Вы не можете голосовать в опросах
Вы не можете прикреплять файлы к сообщениям
Вы не можете скачивать файлы

▼ Вниз