ML
     
  Уважаемый Гость!
Вы можете поддержать проект и зарегистрироваться у наших партнеров - онлайн-стратегия MyLands. При регистрации в игре Вы получите код, который сможете активировать после регистрации на pirat.ca и получить 1000 дублонов.

Ваш код:
0af2e2107bc9b5dd5ac2c09f9fc25e1a77c43887
 
     

Волчья яма (Болотбек Шамшиев) [1983 г., драма, криминал, TVRip]

Ответить на тему
 
Автор
Сообщение

Пост 10-Июл-2016 09:44

[Q] 

somik

Легенда

-Волчья яма-- Производство: СССР, Киргизфильм (дубл. МОСФИЛЬМ)
Режиссер: Болотбек Шамшиев
Жанр: драма, криминал
Год выпуска: 1983 г.
Продолжительность: 01:17:18
Российская премьера: 21 мая 1984
В ролях: Талгат Нигматулин, Айтурган Темирова, Кененбай Кожабеков, Суйменкул Чокморов, Жоробек Аралбаев, Александр Милютин, Николай Крюков, Муса Мамбетов, Орозбек Кутманалиев, Виктор Мирошниченко, Тохтахун Бахтыбаев, Анатолий Плюто, Венера Нигматуллина
Роли дублировали: Любовь Виролайнен, Юрий Демич, Армен Джигарханян, Владислав Ковальков, Андрей Ростоцкий, ...-Описание: Сирота Самат Касымов часто обращается за помощью к прикованному из-за болезни к креслу Мусе Шарипову. Он и не подозревает, что за обликом обаятельного и уважаемого человека, выдающего себя за ветерана войны, скрывается матерый преступник Бабахан. И ничего не подозревающий Самат становится «курьером» бандитской шайки…-Сэмпл КиноПоиск
Качество видео: TVRip
Контейнер: AVI
Видео кодек: DivX
Аудио кодек: MP3
Видео: 512x336 (1.52:1), 25 fps, DivX Codec 5.2.1 build 1328 ~1166 kbps avg, 0.27 bit/pixel
Аудио: 48 kHz, MPEG Layer 3, 2 ch, ~128.00 kbps avg
Cубтитры: отсутствуют
«"Волчью яму" можно, наверное, упрекнуть в затянутости, а местами и в дидактичной схематичности сюжета. Между тем в главном Болот Шамшиев остался верен себе - история человека, ставшего преступником и потом нашедшего силы изменить свою судьбу, по-настоящему волнует. Исполнитель главной роли Талгат Нигматулин доказал здесь, что он не только замечательный каскадер, но и серьезный талантливый драматический актер. Прослеживая судьбу своего персонажа на протяжении нескольких десятилетий, авторы приходят к своего рода национальному варианту "Калины красной". Фильм у Шамшиева получился жестокий, суровый и честный...»
От себя добавлю - качеством изображения фильм не блещет, риповал не я,
нашел рип в сети (Спасибо неизвестному , который сделал рип ),
... но: фильм редкий - это одна из последних ролей Талгата Нигматулина.
Так что прошу ногами не пинать.
Общее
Полное имя : F:\Волчья яма\Volchya Yama.[pirat.ca]\1.Volchya Yama.[pirat.ca].avi
Формат : AVI
Формат/Информация : Audio Video Interleave
Размер файла : 700 Мбайт
Продолжительность : 1 ч. 15 м.
Общий поток : 1304 Кбит/сек
Название фильма : 1.Volchya Yama.[pirat.ca]
Программа кодирования : VirtualDubMod 1.5.10.1 (build 2439/release)
Видео
Идентификатор : 0
Формат : MPEG-4 Visual
Параметр BVOP формата : Нет
Параметр QPel формата : Нет
Параметр GMC формата : Без точки перехода
Параметр матрицы формата : Default (H.263)
Идентификатор кодека : DX50
Идентификатор кодека/Подсказка : DivX 5
Продолжительность : 1 ч. 15 м.
Битрейт : 1167 Кбит/сек
Ширина : 512 пикселей
Высота : 336 пикселей
Соотношение сторон : 3:2
Частота кадров : 25,000 кадров/сек
Цветовое пространство : YUV
Субдискретизация насыщенности : 4:2:0
Битовая глубина : 8 бит
Тип развёртки : Прогрессивная
Метод сжатия : С потерями
Бит/(Пиксели*Кадры) : 0.271
Размер потока : 626 Мбайт (89%)
Библиотека кодирования : DivX 5.2.1 (WaffleDay) (UTC 2004-09-08)
Аудио
Идентификатор : 1
Формат : MPEG Audio
Версия формата : Version 1
Профиль формата : Layer 3
Режим : Joint stereo
Расширение режима : MS Stereo
Идентификатор кодека : 55
Идентификатор кодека/Подсказка : MP3
Продолжительность : 1 ч. 15 м.
Вид битрейта : Постоянный
Битрейт : 128 Кбит/сек
Каналы : 2 канала
Частота : 48,0 КГц
Метод сжатия : С потерями
Размер потока : 68,7 Мбайт (10%)
Выравнивание : Разделение по промежуткам
Продолжительность промежутка : 40 мс. (1,00 видеокадр)
Время предзагрузки промежутка : 40 мс.
Библиотека кодирования : LAME3.96.1
Общее
Полное имя : F:\Волчья яма\Volchya Yama.[pirat.ca]\2.Volchya Yama.[pirat.ca].avi
Формат : AVI
Формат/Информация : Audio Video Interleave
Размер файла : 700 Мбайт
Продолжительность : 1 ч. 2 м.
Общий поток : 1572 Кбит/сек
Программа кодирования : VirtualDubMod 1.5.10.1 (build 2439/release)
Библиотека кодирования : VirtualDubMod build 2439/release
Видео
Идентификатор : 0
Формат : MPEG-4 Visual
Параметр BVOP формата : Нет
Параметр QPel формата : Нет
Параметр GMC формата : Без точки перехода
Параметр матрицы формата : Default (H.263)
Идентификатор кодека : DX50
Идентификатор кодека/Подсказка : DivX 5
Продолжительность : 1 ч. 2 м.
Битрейт : 1434 Кбит/сек
Ширина : 512 пикселей
Высота : 336 пикселей
Соотношение сторон : 3:2
Частота кадров : 25,000 кадров/сек
Цветовое пространство : YUV
Субдискретизация насыщенности : 4:2:0
Битовая глубина : 8 бит
Тип развёртки : Прогрессивная
Метод сжатия : С потерями
Бит/(Пиксели*Кадры) : 0.333
Размер потока : 639 Мбайт (91%)
Библиотека кодирования : DivX 5.2.1 (WaffleDay) (UTC 2004-09-08)
Аудио
Идентификатор : 1
Формат : MPEG Audio
Версия формата : Version 1
Профиль формата : Layer 3
Режим : Joint stereo
Расширение режима : MS Stereo
Идентификатор кодека : 55
Идентификатор кодека/Подсказка : MP3
Продолжительность : 1 ч. 2 м.
Вид битрейта : Постоянный
Битрейт : 128 Кбит/сек
Каналы : 2 канала
Частота : 48,0 КГц
Метод сжатия : С потерями
Размер потока : 57,0 Мбайт (8%)
Выравнивание : Разделение по промежуткам
Продолжительность промежутка : 40 мс. (1,00 видеокадр)
Время предзагрузки промежутка : 40 мс.
Библиотека кодирования : LAME3.96.1
Download / Скачать

Хотите скачать бесплатно? Зарегистрируйтесь на сайте (ссылка на регистрацию). Pirat.ca - самый быстрый торрент трекер в рунете!

Как скачивать  ·   Что такое торрент  ·   Рейтинг и ограничения

Показать сообщения:    
Ответить на тему

Текущее время: Сегодня 00:07

Часовой пояс: GMT + 4



Вы не можете начинать темы
Вы не можете отвечать на сообщения
Вы не можете редактировать свои сообщения
Вы не можете удалять свои сообщения
Вы не можете голосовать в опросах
Вы не можете прикреплять файлы к сообщениям
Вы не можете скачивать файлы

▼ Вниз