ML
     
  Уважаемый Гость!
Вы можете поддержать проект и зарегистрироваться у наших партнеров - онлайн-стратегия MyLands. При регистрации в игре Вы получите код, который сможете активировать после регистрации на pirat.ca и получить 1000 дублонов.

Ваш код:
db0e0ad91548759ffeb9bb88bed405e1a4b3c165
 
     

Еще до войны (ТВ) (Борис Савченко) [1982 г., мелодрама, WEB-DLRip]

Ответить на тему
 
Автор
Сообщение

Пост 11-Июл-2016 02:22

[Q] 

somik

Легенда

-Еще до войны (ТВ)-- Производство: СССР, Киевская киностудия им. Довженко
Режиссер: Борис Савченко
Жанр: мелодрама
Год выпуска: 1982 г.
Продолжительность: 02:08:55
Российская премьера: 16 марта 1983
В ролях: Дарья Михайлова — Рая Колотовкина, Андрей Ярославцев — Анатолий Трифонов, Людмила Шевель — Гранька, Ирина Жалыбина — Валентина Капа, Ольга Анохина — учительница Жутикова, Юрий Гребенщиков — Пётр Артемьевич Колотовкин, Василий Петренко — Лёнька Мурзин, Элеонора Шашкова — жена председателя, Александр Гебдовский — брат Раи, Сергей Калантай — брат Раи, Владимир Петрив — брат Раи, Виктор Мирошниченко — отец Анатолия Трифонова, Лилия Гурова — мать Анатолия Трифонова, Николай Юдин — дед Крылов, Ирина Аверьянова — Варенцова, Николай Федорцов — Иван Веденеевич, Александр Белина — капитан-Описание: Тихо и мирно живет деревушка Улым. После службы в армии домой возвращается Анатолий Трифонов. Отец хочет, чтобы он срочно женился. В деревне много невест. Но из города приезжает племянница председателя, хрупкая и не похожая на других девушка Рая. Они полюбили друг друга. Однако жизнь распорядилась по-своему…-Сэмпл КиноПоиск
Качество видео: WEB-DLRip
Контейнер: AVI
Видео кодек: XviD
Аудио кодек: MP3
Видео: 720x464 (1.55:1), 50 fps, XviD build 50 ~2118 kbps avg, 0.13 bit/pixel
Аудио: 44.100 kHz, MPEG Layer 3, 2 ch, ~120.71 kbps avg
Cубтитры: отсутствуют
«Ещё до войны» — советский художественный фильм режиссёра Бориса Савченко, экранизация одноимённой повести Виля Липатова.
Съёмки фильма проходили в селе Ярское Томской области
Пароход «Смелый» действует и в другом произведении Липатова — «Капитан „Смелого“»
Съёмочная группа
Автор сценария: Артур Войтецкий
Режиссёр: Борис Савченко
Оператор: Валерий Квас
Художник: Евгений Стрилецкий
Композитор: Евгений Станкович
Диплом и приз жюри, приз СК СССР на ВТФ в Алма-Ате в 1983 году
Ох, как они любили эту землю!
После трилогии о деревенском милиционере Анискине, а также сценария «И это всё о нём», которые очень близки жанру производственного романа, повесть «Ещё до войны» (1971г.) выглядит, по меньшей мере, неожиданно для творчества Виля Липатова. Неожиданно, потому что поражает глубиной «погружения» автора в атмосферу жизни предвоенной деревни. Очень сочный и колоритный слог мог бы стать «камнем преткновения» при перенесении текста в визуальный ряд, но режиссёр Борис Савченко справился с этой задачей просто блестяще.
Настолько блестяще, что обычное правило для экранизаций: «фильм всегда хуже книги» здесь не действует. Разумеется, 129 минут хронометража не смогли передать всю глубину и «сочность» авторского текста, зато Савченко сумел так адаптировать текст, что фильм можно смотреть с параллельным чтением оригинала. Этому в немалой степени способствует закадровое чтение целых абзацев из повести. Выглядят такие вставки весьма и весьма органично из-за простоты авторской мысли, талантливо наложенной на панорамы сибирских просторов.
В какой-то степени фильм можно воспринимать как документальный, потому что режиссёр подошёл со скрупулёзной тщательностью ко всему, что касается быта, обычаев, разговоров. Даже физические параметры персонажей подбирались в соответствии с авторским текстом. (Большинство девушек в Улыме «дородные», и лишь городская Рая Колотовкина (замечательная актриса Дарья Михайлова) — «стерлядка» по словам колоритного деда Юдина.)
Фильм настолько гармоничен, что две серии пролетели незаметно, оставив приятное ощущение, что ты посмотрел очень тёплое, очень душевное, очень светлое кино, к которому захочется вернуться ещё не раз, потому что в нём нет ни капли фальши. А ещё потому, что каждый персонаж, какую бы малозначительное и незаметную роль он не сыграл, находится на своём месте…
Общее
Полное имя : C:\герои 7\Ещё до войны\Eshjo do voyni.(2.serii.is.2).1982.WEB-DLRip.[pirat.ca]\Eshjo do voyni.(1.seriya.is.2).1982.WEB-DLRip.[pirat.ca].avi
Формат : AVI
Формат/Информация : Audio Video Interleave
Размер файла : 1,02 Гбайт
Продолжительность : 1 ч. 4 м.
Режим общего битрейта : Переменный
Общий поток : 2256 Кбит/сек
Название фильма : Eshjo do voyni.(1.seriya.is.2).1982.WEB-DLRip.[pirat.ca]
Программа кодирования : VirtualDubMod 1.5.10.2 (build 2540/release)
Видео
Идентификатор : 0
Формат : MPEG-4 Visual
Профиль формата : Advanced [email protected]
Параметр BVOP формата : 4
Параметр QPel формата : Нет
Параметр GMC формата : Без точки перехода
Параметр матрицы формата : Default (H.263)
Идентификатор кодека : XVID
Идентификатор кодека/Подсказка : XviD
Продолжительность : 1 ч. 4 м.
Битрейт : 2117 Кбит/сек
Ширина : 720 пикселей
Высота : 464 пикселя
Соотношение сторон : 16:10
Частота кадров : 50,000 кадров/сек
Цветовое пространство : YUV
Субдискретизация насыщенности : 4:2:0
Битовая глубина : 8 бит
Тип развёртки : Прогрессивная
Метод сжатия : С потерями
Бит/(Пиксели*Кадры) : 0.127
Размер потока : 981 Мбайт (94%)
Библиотека кодирования : XviD 1.2.1 (UTC 2008-12-04)
Аудио
Идентификатор : 1
Формат : MPEG Audio
Версия формата : Version 1
Профиль формата : Layer 3
Идентификатор кодека : 55
Идентификатор кодека/Подсказка : MP3
Продолжительность : 1 ч. 4 м.
Вид битрейта : Переменный
Битрейт : 121 Кбит/сек
Номинальный битрейт : 128 Кбит/сек
Каналы : 2 канала
Частота : 44,1 КГц
Метод сжатия : С потерями
Размер потока : 55,9 Мбайт (5%)
Выравнивание : Соединение по промежуткам
Продолжительность промежутка : 26 мс. (1,31 видеокадр)
Время предзагрузки промежутка : 566 мс.
Библиотека кодирования : LAME3.98r
Настройки программы : -m s -V 4 -q 2 -lowpass 17 --abr 128
Общее
Полное имя : C:\герои 7\Ещё до войны\Eshjo do voyni.(2.serii.is.2).1982.WEB-DLRip.[pirat.ca]\Eshjo do voyni.(2.seriya.is.2).1982.WEB-DLRip.[pirat.ca].avi
Формат : AVI
Формат/Информация : Audio Video Interleave
Размер файла : 1,01 Гбайт
Продолжительность : 1 ч. 4 м.
Режим общего битрейта : Переменный
Общий поток : 2257 Кбит/сек
Название фильма : Eshjo do voyni.(2.seriya.is.2).1982.WEB-DLRip.[pirat.ca]
Программа кодирования : VirtualDubMod 1.5.10.2 (build 2540/release)
Видео
Идентификатор : 0
Формат : MPEG-4 Visual
Профиль формата : Advanced [email protected]
Параметр BVOP формата : 4
Параметр QPel формата : Нет
Параметр GMC формата : Без точки перехода
Параметр матрицы формата : Default (H.263)
Идентификатор кодека : XVID
Идентификатор кодека/Подсказка : XviD
Продолжительность : 1 ч. 4 м.
Битрейт : 2119 Кбит/сек
Ширина : 720 пикселей
Высота : 464 пикселя
Соотношение сторон : 16:10
Частота кадров : 50,000 кадров/сек
Цветовое пространство : YUV
Субдискретизация насыщенности : 4:2:0
Битовая глубина : 8 бит
Тип развёртки : Прогрессивная
Метод сжатия : С потерями
Бит/(Пиксели*Кадры) : 0.127
Размер потока : 972 Мбайт (94%)
Библиотека кодирования : XviD 1.2.1 (UTC 2008-12-04)
Аудио
Идентификатор : 1
Формат : MPEG Audio
Версия формата : Version 1
Профиль формата : Layer 3
Идентификатор кодека : 55
Идентификатор кодека/Подсказка : MP3
Продолжительность : 1 ч. 4 м.
Вид битрейта : Переменный
Битрейт : 121 Кбит/сек
Номинальный битрейт : 128 Кбит/сек
Каналы : 2 канала
Частота : 44,1 КГц
Метод сжатия : С потерями
Размер потока : 55,4 Мбайт (5%)
Выравнивание : Соединение по промежуткам
Продолжительность промежутка : 26 мс. (1,31 видеокадр)
Время предзагрузки промежутка : 546 мс.
Библиотека кодирования : LAME3.98r
Настройки программы : -m s -V 4 -q 2 -lowpass 17 --abr 128
Download / Скачать

Хотите скачать бесплатно? Зарегистрируйтесь на сайте (ссылка на регистрацию). Pirat.ca - самый быстрый торрент трекер в рунете!

Как скачивать  ·   Что такое торрент  ·   Рейтинг и ограничения

Показать сообщения:    
Ответить на тему

Текущее время: Сегодня 08:09

Часовой пояс: GMT + 4



Вы не можете начинать темы
Вы не можете отвечать на сообщения
Вы не можете редактировать свои сообщения
Вы не можете удалять свои сообщения
Вы не можете голосовать в опросах
Вы не можете прикреплять файлы к сообщениям
Вы не можете скачивать файлы

▼ Вниз