ML
     
  Уважаемый Гость!
Вы можете поддержать проект и зарегистрироваться у наших партнеров - онлайн-стратегия MyLands. При регистрации в игре Вы получите код, который сможете активировать после регистрации на pirat.ca и получить 1000 дублонов.

Ваш код:
fe4e93b754a7c2b306fcfc8bc32532ea1cf59d3b
 
     

Влюбленные (Эльёр Ишмухамедов) [1969 г., мелодрама, DVDRip-AVC]

Ответить на тему
 
Автор
Сообщение

Пост 12-Июл-2016 16:16

[Q] 

somik

Легенда

-Влюбленные-- Производство: СССР, Узбекфильм
Режиссер: Эльёр Ишмухамедов
Жанр: мелодрама
Год выпуска: 1969 г.
Продолжительность: 01:18:18
Российская премьера: 2 января 1970
В ролях: Родион Нахапетов, Анастасия Вертинская, Рустам Сагдуллаев, Гюзаль Апанаева, Карен Хачатурян, Ровшан Агзамов, Сергей Гурзо-мл., Улугбек Салахутдинов, Хамза Умаров, Неля Анатуллаева, Рустам Закиров, Шухрат Иргашев, В.Барамыков-Описание: Лирический рассказ о молодежи, поисках истины, первых мучительных переживаниях любви. В фильме три героя. Родион — добрый и цельный человек — трудно переживает расставание с девушкой, которая его не любит, и сам избавляет ее от необходимости врать и мучиться.
Жизнь Рустама складывается иначе. Он — любим, талантлив. Третий герой, грек по происхождению, возвращается на родину, где нашлись его мать и брат.-Сэмпл КиноПоиск
Качество видео: DVDRip-AVC
Контейнер: MKV
Видео кодек: MPEG4 AVC
Аудио кодек: AC3
Видео: MPEG4 Video (H264), 720x400, 25 fps, 2700 Kbps
Аудио: Dolby AC3, 48000 Hz, 2ch, 192 kbps
Cубтитры: отсутствуют
Это своеобразное продолжение предыдущей картины «Нежность» узбекского режиссёра Эльёра Ишмухамедова. А для актёра Родиона Нахапетова образ, сыгранный в фильме «Влюблённые» — как нравственный итог в поиске современного героя конца 60-х годов, характер, в котором отдельные найденные черты молодого современника сводятся в одно целое.
Диплом и премия режиссеру Э.Ишмухамедову.
Приз журнала "Советский экран" на ВКФ в Минске-70.
Световое пространство Эльёра Ишмухаметова
Эльёр Ишмухаметов… мало кто сейчас помнит его имя. Но фильмы остались, уцелели, живут своей жизнью где-то там, в своем мире. Мы можем посмотреть их, и вновь вернуться туда, в странное, волшебное время, мир детства и чистого воздуха, каких-то настоящих слов, взглядов, жестов, прикоснуться к чему-то, чему сейчас даже трудно подобрать название. Как это сделано, можно ли это понять? Не знаю, сейчас я не могу ни понять, ни разгадать его секрет, знаю только, что он соткал свои ленты из света, простого и бесконечного светового пространства, и оно настолько огромно, настолько всепоглощающе, что, наверное, открывает дверь в другую жизнь, другое измерение.
Нежность… больше никаких слов, никогда. Простые движения, простые слова, почти документальные кадры, эпоха, ушедшая в небытие. Возможно там, возле этой ташкентской реки, на краешке империи и находился кусочек рая? Маленький, незаметный кусочек, а мы его потеряли, проспали, утратили. Ведь эта утрата постоянна, — наивны те, кто думает, что мы были изгнаны из рая когда-то давно. Это изгнание происходит ежесекундно, каждый день и каждое мгновение. Мы сами теряем их, бесценные секунды бытия. А Эльёр оставил их в своих фильмах. Как странно и непостижимо — снова стремительно взрослеющий мальчишка гонит свою шину по мосту, а потом бросается в мутную и прохладную воду.
И через два года — еще больше печали, и еще больше света. Огромные пласты, падающие на тебя, световые столбы, непонятно откуда возникающие. Весь кинематограф мира сосредоточен тут — так снимать мечтали бы Тарковский и Феллини, Годар и Антониони… Анастасия Вертинская, Настя… Офелия мирового кино. Ее отец родился в Российской Империи, она родилась в СССР, а узбекский оператор запечатлел самый красивый план девушки, который только можно представить. За эти кадры можно отдать все. Родион Нахапетов — где сейчас девушки найдут такого героя? Может быть, это я, может быть, ты — поиск счастья в заведомо невозможном, ускользающем мире? Любовь, возможна ли она вообще? Или мы будем страдать до самого конца? И все равно — бесконечные, непостижимые полотна света, несущиеся на нас с экрана. Может быть, именно эта светлая грусть очистит нашу душу?
А последние десять минут фильма «Влюбленные» являют собой уже беспрерывное откровение, очищающий катарсис. Потоки воды, смывающие печаль. В падении таится взлет. В печали скрывается тайна. Нам не узнать ее по-другому — нужно пройти все ступени.
Самые важные, последние три минуты фильма, почему-то возвращают меня к мыслям о Брессоне. Возможно, потому, что все его темное пространство, свет, ищущий выхода, это подпольное, одинокое, такое упрямое движение вдруг разрешается здесь окончательно и бесповоротно. Это вновь родившийся Роббер Брессон появляется в кадре, теперь окончательно. Бесповоротно. Навсегда. Это родилось то, что было всегда, то, что не имеет смерти. Это я вечно стою на этой уходящей вдаль аллее, и в мои глаза бьет свет.
Общее
Уникальный идентификатор : 220792883017495791871857722660594992146 (0xA61B29990441268A87D28509012D4412)
Полное имя : E:\Влюбленные\Vljubljonnye.1969.DVDRip-AVC.[pirat.ca].mkv
Формат : Matroska
Версия формата : Version 2
Размер файла : 1,57 Гбайт
Продолжительность : 1 ч. 18 м.
Общий поток : 2879 Кбит/сек
Дата кодирования : UTC 2014-02-12 21:59:29
Программа кодирования : mkvmerge v5.8.0 ('No Sleep / Pillow') built on Sep 2 2012 15:37:04
Библиотека кодирования : libebml v1.2.3 + libmatroska v1.3.0
Видео
Идентификатор : 1
Формат : AVC
Формат/Информация : Advanced Video Codec
Профиль формата : [email protected]
Параметр CABAC формата : Да
Параметр ReFrames формата : 5 кадров
Идентификатор кодека : V_MPEG4/ISO/AVC
Продолжительность : 1 ч. 18 м.
Битрейт : 2700 Кбит/сек
Ширина : 720 пикселей
Высота : 400 пикселей
Соотношение сторон : 16:9
Режим частоты кадров : Постоянный
Частота кадров : 25,000 кадров/сек
Цветовое пространство : YUV
Субдискретизация насыщенности : 4:2:0
Битовая глубина : 8 бит
Тип развёртки : Прогрессивная
Бит/(Пиксели*Кадры) : 0.375
Размер потока : 1,44 Гбайт (91%)
Библиотека кодирования : x264 core 125 r2208 d9d2288
Настройки программы : cabac=1 / ref=6 / deblock=1:-1:-1 / analyse=0x3:0x133 / me=umh / subme=9 / psy=1 / psy_rd=1.00:0.15 / mixed_ref=1 / me_range=24 / chroma_me=1 / trellis=1 / 8x8dct=1 / cqm=0 / deadzone=21,11 / fast_pskip=0 / chroma_qp_offset=-3 / threads=12 / lookahead_threads=2 / sliced_threads=0 / nr=0 / decimate=1 / interlaced=0 / bluray_compat=0 / constrained_intra=0 / bframes=6 / b_pyramid=1 / b_adapt=1 / b_bias=0 / direct=2 / weightb=1 / open_gop=0 / weightp=2 / keyint=250 / keyint_min=25 / scenecut=40 / intra_refresh=0 / rc_lookahead=50 / rc=abr / mbtree=1 / bitrate=2700 / ratetol=1.0 / qcomp=0.60 / qpmin=0 / qpmax=69 / qpstep=4 / ip_ratio=1.40 / aq=1:1.00
Default : Да
Forced : Нет
Аудио
Идентификатор : 2
Формат : AC-3
Формат/Информация : Audio Coding 3
Расширение режима : CM (complete main)
Параметр Endianness формата : Big
Идентификатор кодека : A_AC3
Продолжительность : 1 ч. 18 м.
Вид битрейта : Постоянный
Битрейт : 192 Кбит/сек
Каналы : 2 канала
Расположение каналов : Front: L R
Частота : 48,0 КГц
Частота кадров : 31,250 кадров/сек (1536 spf)
Метод сжатия : С потерями
Размер потока : 108 Мбайт (7%)
Default : Да
Forced : Нет
Download / Скачать

Хотите скачать бесплатно? Зарегистрируйтесь на сайте (ссылка на регистрацию). Pirat.ca - самый быстрый торрент трекер в рунете!

Как скачивать  ·   Что такое торрент  ·   Рейтинг и ограничения

Показать сообщения:    
Ответить на тему

Текущее время: Сегодня 14:32

Часовой пояс: GMT + 4



Вы не можете начинать темы
Вы не можете отвечать на сообщения
Вы не можете редактировать свои сообщения
Вы не можете удалять свои сообщения
Вы не можете голосовать в опросах
Вы не можете прикреплять файлы к сообщениям
Вы не можете скачивать файлы

▼ Вниз