ML
     
  Уважаемый Гость!
Вы можете поддержать проект и зарегистрироваться у наших партнеров - онлайн-стратегия MyLands. При регистрации в игре Вы получите код, который сможете активировать после регистрации на pirat.ca и получить 1000 дублонов.

Ваш код:
4fbd9898b6f10799a3e8edf60f31febd2bc15453
 
     

Завтра была война (Юрий Кара) [1987 г., драма, семейный, военный, DVDRip-AVC]

Ответить на тему
 
Автор
Сообщение

Пост 16-Июл-2016 03:20

[Q] 

somik

Легенда

-Завтра была война-- Производство: СССР, Студия Горького
Режиссер: Юрий Кара
Жанр: драма, семейный, военный
Год выпуска: 1987 г.
Продолжительность: 01:24:29
Российская премьера: 19 октября 1987
Дата выхода DVD: 19 ноября 2009, «Новый Диск»
В ролях: Сергей Никоненко, Нина Русланова, Вера Алентова, Владимир Заманский, Ирина Чериченко, Наталья Негода, Юлия Тархова, Радий Овчинников, Геннадий Фролов, Владислав Демченко, Виктор Аникиев, Екатерина Никоненко, Владимир Маслаков, Александр Гаврилов, Михаил Анисимов, Александр Александров, Елизавета Потапова, Екатерина Воронина, Ким Староскольцев, Лина Гурина, Миша Николаев, Сергей Столяров-Описание: Начало сороковых. Герои фильма — обычные советские старшеклассники. Они учатся в советской школе, стараются быть правильными и идейными комсомольцами-активистами. Но не всегда «правильность», внушаемая учителями, совпадает с внутренними убеждениями юных душ — им сложно смириться с тем, что их родные и любимые люди оказываются вдруг «врагами народа».-Сэмпл КиноПоиск
Качество видео: DVDRip-AVC
Контейнер: MKV
Видео кодек: MPEG4 AVC
Аудио кодек: AC3
Видео: MPEG-4 AVC, 2000 Кбит/с, [email protected], 25,000 кадров/сек
Аудио: АС3, 6 ch, 448 Кбит/с, 48,0 КГц
Cубтитры: отсутствуют
Фильм снят по одноименной повести Бориса Васильева.
Бюджет фильма составлял всего 50 тысяч рублей. Актёры снимались бесплатно.
В фильме использована музыка 30-х годов и сочинения Вивальди.
Фильм посвящен Сергею Герасимову.
Некоторые эпизоды были сняты в московской школе N 175.
Специальный приз на МКФ в Мангейме,
главная премия на МКФ в Вальядолиде,
«Ника» актрисе Нине Руслановой за второплановые роли в фильмах «Короткие встречи», «Знак беды» и «Завтра была война»;
Золотая медаль имени Довженко в 1988 году.
Ника, 1988 год
Победитель (1):
Лучшая женская роль ( Нина Русланова )
Стоит задуматься…
Основа фильма — конфликт чувств и идейности, так как, на мой взгляд, основной посыл сценария исходит от влияния политической ситуации в стране во время съёмок фильма. Трагизм, достоверность, удивительная сила образов, глубина отношений,
сюжет, пронзающий своей достоверностью… Весь этот конфликт ярче всего проходит сквозь нить взаимоотношений Искры Поляковой с матерью (на мой взгляд они являются самые сложные и трагичные образы картины). Не может оставить равнодушным и глубоко трагическая судьба Вики Люберецкой и её отца, связанная, опять же, с этими противоречиями. На сценарии фильма сказался и тот серьёзный перелом, который переживала страна в годы съёмки фильма. Фильм, считаю, является одним из лучших в ещё советской кинематографии. Рекомендовал бы даннную картину к просмотру в образовательных учреждениях.
10 из 10
Общее
Уникальный идентификатор : 242606427637364207141359827256948659197 (0xB6844C61E528B51FB7EBAEE1006193FD)
Полное имя : C:\герои 7\Завтра была война\Zavtra byla voyna.1987.DVDRip-AVC.[pirat.ca].mkv
Формат : Matroska
Версия формата : Version 2
Размер файла : 1,45 Гбайт
Продолжительность : 1 ч. 24 м.
Общий поток : 2450 Кбит/сек
Дата кодирования : UTC 2016-07-15 23:01:50
Программа кодирования : mkvmerge v5.3.0 ('I could have danced') built on Feb 9 2012 10:38:07
Библиотека кодирования : libebml v1.2.3 + libmatroska v1.3.0
Видео
Идентификатор : 1
Формат : AVC
Формат/Информация : Advanced Video Codec
Профиль формата : [email protected]
Параметр CABAC формата : Да
Параметр ReFrames формата : 15 кадров
Идентификатор кодека : V_MPEG4/ISO/AVC
Продолжительность : 1 ч. 24 м.
Битрейт : 2000 Кбит/сек
Ширина : 702 пикселя
Высота : 568 пикселей
Соотношение сторон : 4:3
Соотношение сторон в оригинале : 4:3
Режим частоты кадров : Постоянный
Частота кадров : 25,000 кадров/сек
Цветовое пространство : YUV
Субдискретизация насыщенности : 4:2:0
Битовая глубина : 8 бит
Тип развёртки : Прогрессивная
Бит/(Пиксели*Кадры) : 0.201
Размер потока : 1,15 Гбайт (80%)
Библиотека кодирования : x264 core 148 r2579 73ae2d1
Настройки программы : cabac=1 / ref=15 / deblock=1:-2:-2 / analyse=0x3:0x133 / me=umh / subme=10 / psy=1 / psy_rd=1.05:0.13 / mixed_ref=1 / me_range=32 / chroma_me=1 / trellis=2 / 8x8dct=1 / cqm=0 / deadzone=21,11 / fast_pskip=0 / chroma_qp_offset=-3 / threads=12 / lookahead_threads=3 / sliced_threads=0 / nr=0 / decimate=0 / interlaced=0 / bluray_compat=0 / constrained_intra=0 / bframes=12 / b_pyramid=2 / b_adapt=2 / b_bias=0 / direct=3 / weightb=1 / open_gop=0 / weightp=2 / keyint=250 / keyint_min=25 / scenecut=40 / intra_refresh=0 / rc=2pass / mbtree=0 / bitrate=2000 / ratetol=1.0 / qcomp=0.63 / qpmin=0 / qpmax=39 / qpstep=4 / cplxblur=20.0 / qblur=0.5 / ip_ratio=1.40 / pb_ratio=1.30 / aq=1:1.00
Язык : English
Default : Да
Forced : Нет
Цветовой диапазон : Limited
Основные цвета : BT.601 PAL
Характеристики трансфера : BT.470 System B, BT.470 System G
Коэффициенты матрицы : BT.601
Аудио
Идентификатор : 2
Формат : AC-3
Формат/Информация : Audio Coding 3
Расширение режима : CM (complete main)
Параметр Endianness формата : Big
Идентификатор кодека : A_AC3
Продолжительность : 1 ч. 24 м.
Вид битрейта : Постоянный
Битрейт : 448 Кбит/сек
Каналы : 6 каналов
Расположение каналов : Front: L C R, Side: L R, LFE
Частота : 48,0 КГц
Частота кадров : 31,250 кадров/сек (1536 spf)
Метод сжатия : С потерями
Размер потока : 271 Мбайт (18%)
Язык : Russian
Default : Да
Forced : Нет
Download / Скачать

Хотите скачать бесплатно? Зарегистрируйтесь на сайте (ссылка на регистрацию). Pirat.ca - самый быстрый торрент трекер в рунете!

Как скачивать  ·   Что такое торрент  ·   Рейтинг и ограничения

BookkeeperWolf

Легенда

Пост 19-Июл-2016 13:05 (спустя 3 дня)

[Q] 

Отличный фильм Зуб даю...
[Профиль]  [ЛС] 
Показать сообщения:    
Ответить на тему

Текущее время: Сегодня 19:57

Часовой пояс: GMT + 4



Вы не можете начинать темы
Вы не можете отвечать на сообщения
Вы не можете редактировать свои сообщения
Вы не можете удалять свои сообщения
Вы не можете голосовать в опросах
Вы не можете прикреплять файлы к сообщениям
Вы не можете скачивать файлы

▼ Вниз