ML
     
  Уважаемый Гость!
Вы можете поддержать проект и зарегистрироваться у наших партнеров - онлайн-стратегия MyLands. При регистрации в игре Вы получите код, который сможете активировать после регистрации на pirat.ca и получить 1000 дублонов.

Ваш код:
4fbd9898b6f10799a3e8edf60f31febd2bc15453
 
     

Инспектор Гулл (ТВ) (Александр Прошкин) [1979 г., детектив, SATRip]

Ответить на тему
 
Автор
Сообщение

Пост 28-Июл-2016 02:29

[Q] 

somik

Легенда

-Инспектор Гулл (ТВ)-- Производство: СССР, ТО Экран
Режиссер: Александр Прошкин
Жанр: детектив
Год выпуска: 1979 г.
Продолжительность: 02:17:32
Российская премьера: 13 сентября 1979
Дата выхода DVD: 30 марта 2010, «Флагман-Трейд»
В ролях: Юозас Будрайтис, Елена Проклова, Владимир Зельдин, Эльза Радзиня, Лембит Ульфсак, Ивар Калныньш, Анита Грубе, Анда Зайце, Паул Буткевич, Юрис Стренга.-Описание: В доме Артура Берлинга, богатого промышленника, семейное торжество — помолвка. Но семейный праздник прерван неожиданным визитом инспектора Гулла.
Инспектор рассказывает, что под колесами поезда погибла девушка. Вопросы инспектора вызывают у всех присутствующих смятение — каждый из них мог быть причастен к судьбе погибшей.-Сэмпл КиноПоиск
Качество видео: SATRip
Контейнер: MKV
Видео кодек: MPEG4 AVC
Аудио кодек: AC3
Видео: MPEG-4 AVC, 2050 Кбит/с, [email protected], 25,000 кадров/сек
Аудио: AC3, 2 ch, 256 Кбит/с, 48,0 КГц
Cубтитры: отсутствуют
«Мы даже не знаем, кто он». — «Но теперь мы знаем, кто мы»
Фильм просто потряс. Первый раз увидела его вскоре после выхода, — тогда была совсем ещё ребёнком, дошкольницей, и конечно, не могла ещё многого понять. Но впечатление он произвёл уже тогда. Теперь, спустя десятки лет, пересмотрела и испытала настоящее потрясение.
Сейчас такие фильмы невозможны по определению. В наше динамичное время «ментовских войн», погонь и стрелялок, ток-, реалити-шоу, потока, шквала ежесекундно обрушивающейся информации, очень непросто выкроить время, чтобы задуматься о чём-то действительно важном, задать себе неудобные вопросы и поискать на них ответы. Конечно, фильм на первый взгляд кажется нудным, скучным, мрачным, затянутым. Но каким же тогда образом две небольшие серии оказываются настолько глубокими и наполненными, насколько и близко не бывают 100-серийные сериалы, после которых, кроме ощущения пустоты ничего не остаётся?..
А ведь нас действительно совершенно не трогает поток насилия, страданий, убийств и террора, который ежедневно льётся с экранов телевизоров и со страниц газет. Пока это не коснётся нас самих. «Как можно любить всё человечество? Достаточно любить свою семью, как маленькую его модель». Всё остальное — не больше, чем шоу. «Присаживайтесь поудобнее, сейчас вы услышите кровавую историю».
Но только эта история совсем не про то, как там у них, где-то за рубежом. Она про нас. Каждую минуту кто-то покидает этот мир по собственной воле, потому что чувствует себя в нём совершенно никому не нужным. Мир полон жестокости, подлости, глупости, предательства, лицемерия и легкомыслия. И каждый из нас вносит свою лепту. Никогда не знаешь, что может стать для кого-то последней каплей.
Кто рискнёт сдёрнуть завесу фальшивого благополучия и благопристойности? Наберётся дерзости говорить с людьми избранного круга без должного почтения, допрашивать, обвинять, осуждать?
«И мы снова хорошие люди»…
Финал очень понравился: эффектный завершающий аккорд. С одной стороны резко и неожиданно, но с другой — вполне логично.
10 из 10
Общее
Уникальный идентификатор : 216932703581254598225975166440821629490 (0xA333B80EB4D68F17935E570044B22232)
Полное имя : J:\Инспектор Гулл\Inspektor Gull.1979.SATRip-AVC.[pirat.ca]\Inspektor Gull.e1.1979.SATRip-AVC.[pirat.ca].mkv
Формат : Matroska
Версия формата : Version 2
Размер файла : 1,06 Гбайт
Продолжительность : 1 ч. 5 м.
Общий поток : 2308 Кбит/сек
Дата кодирования : UTC 2015-04-11 10:49:42
Программа кодирования : mkvmerge v5.8.0 ('No Sleep / Pillow') built on Sep 2 2012 15:37:04
Библиотека кодирования : libebml v1.2.3 + libmatroska v1.3.0
Видео
Идентификатор : 1
Формат : AVC
Формат/Информация : Advanced Video Codec
Профиль формата : [email protected]
Параметр CABAC формата : Да
Параметр ReFrames формата : 15 кадров
Идентификатор кодека : V_MPEG4/ISO/AVC
Продолжительность : 1 ч. 5 м.
Битрейт : 2050 Кбит/сек
Ширина : 710 пикселей
Высота : 572 пикселя
Соотношение сторон : 4:3
Соотношение сторон в оригинале : 4:3
Режим частоты кадров : Постоянный
Частота кадров : 25,000 кадров/сек
Цветовое пространство : YUV
Субдискретизация насыщенности : 4:2:0
Битовая глубина : 8 бит
Тип развёртки : Прогрессивная
Бит/(Пиксели*Кадры) : 0.202
Размер потока : 942 Мбайт (87%)
Библиотека кодирования : x264 core 130 r2273 b3065e6
Настройки программы : cabac=1 / ref=15 / deblock=1:-2:-2 / analyse=0x3:0x133 / me=umh / subme=10 / psy=1 / psy_rd=1.05:0.15 / mixed_ref=1 / me_range=32 / chroma_me=1 / trellis=2 / 8x8dct=1 / cqm=0 / deadzone=21,11 / fast_pskip=0 / chroma_qp_offset=-3 / threads=12 / lookahead_threads=2 / sliced_threads=0 / nr=0 / decimate=0 / interlaced=0 / bluray_compat=0 / constrained_intra=0 / bframes=9 / b_pyramid=2 / b_adapt=2 / b_bias=0 / direct=3 / weightb=1 / open_gop=0 / weightp=2 / keyint=250 / keyint_min=25 / scenecut=40 / intra_refresh=0 / rc=2pass / mbtree=0 / bitrate=2050 / ratetol=1.0 / qcomp=0.65 / qpmin=0 / qpmax=39 / qpstep=4 / cplxblur=20.0 / qblur=0.5 / ip_ratio=1.40 / pb_ratio=1.30 / aq=1:1.00
Язык : English
Default : Да
Forced : Нет
Цветовой диапазон : Limited
Основные цвета : BT.601 PAL
Характеристики трансфера : BT.470 System B, BT.470 System G
Коэффициенты матрицы : BT.601
Аудио
Идентификатор : 2
Формат : AC-3
Формат/Информация : Audio Coding 3
Расширение режима : CM (complete main)
Параметр Endianness формата : Big
Идентификатор кодека : A_AC3
Продолжительность : 1 ч. 5 м.
Вид битрейта : Постоянный
Битрейт : 256 Кбит/сек
Каналы : 2 канала
Расположение каналов : Front: L R
Частота : 48,0 КГц
Частота кадров : 31,250 кадров/сек (1536 spf)
Метод сжатия : С потерями
Задержка видео : 100 мс.
Размер потока : 120 Мбайт (11%)
Язык : Russian
Default : Да
Forced : Нет
Download / Скачать

Хотите скачать бесплатно? Зарегистрируйтесь на сайте (ссылка на регистрацию). Pirat.ca - самый быстрый торрент трекер в рунете!

Как скачивать  ·   Что такое торрент  ·   Рейтинг и ограничения

Пост 28-Июл-2016 07:25 (спустя 4 часа)

Топик был перенесен из форума Наше кино (Трюм) в форум Советское кино
aleksey99
 
Показать сообщения:    
Ответить на тему

Текущее время: Сегодня 19:57

Часовой пояс: GMT + 4



Вы не можете начинать темы
Вы не можете отвечать на сообщения
Вы не можете редактировать свои сообщения
Вы не можете удалять свои сообщения
Вы не можете голосовать в опросах
Вы не можете прикреплять файлы к сообщениям
Вы не можете скачивать файлы

▼ Вниз