ML
     
  Уважаемый Гость!
Вы можете поддержать проект и зарегистрироваться у наших партнеров - онлайн-стратегия MyLands. При регистрации в игре Вы получите код, который сможете активировать после регистрации на pirat.ca и получить 1000 дублонов.

Ваш код:
0ea1bf889af42fca5f67d0a391efb3400850ad7c
 
     

Ты у меня одна (Дмитрий Астрахан) [1993 г., драма, HDTVRip]

Ответить на тему
 
Автор
Сообщение

Пост 26-Авг-2016 03:06

[Q] 

somik

Легенда

-Ты у меня одна-- Производство: Россия, Astur Company, Informpresservice, Ленфильм
Режиссер: Дмитрий Астрахан
Жанр: драма
Год выпуска: 1993 г.
Продолжительность: 01:33:16
Российская премьера: Февраль 1993
Дата выхода DVD: 21 апреля 2009, «Мьюзик-Трейд»
В ролях: Александр Збруев, Марина Неёлова, Светлана Рябова, Марк Горонок, Мария Лобачева, Ксения Морозова, Виктор Гоголев, Ирина Мазуркевич, Александр Лыков, Артур Ваха, Валерий Никитенко, Лев Милиндер, Юрий Орлов, Владимир Труханов, Ефим Каменецкий, Александр Сластин, Илья Линович, Сергей Завадский, Юрий Карпенко, Иван Паршин, Анна Банщикова, Ольга Васильева-Описание: Бывший боксер, а ныне — рядовой инженер, Евгений Тимошин получает возможность изменить свою жизнь к лучшему. Его зовет с собой в Америку молодая, красивая, богатая женщина, которая с детства в него влюблена. Но Тимошин любит свою жену, и никогда не мечтал об Америке…-Сэмпл КиноПоиск
Качество видео: HDTVRip
Контейнер: AVI
Видео кодек: XviD
Аудио кодек: AC3
Видео: 704x400 (1.76:1), 25 fps, XviD build 50 ~1799 kbps avg, 0.26 bit/pixel
Аудио: 48 kHz, AC3 Dolby Digital, 2/0 (L,R) ch, ~192 kbps
Cубтитры: отсутствуют
Прекрасный фильм. Фильм где нет «хороших» и «плохих», нет этого противостояния, типичного для многих картин. Позиция каждого героя ясна и понятна, заставляет сопереживать каждому их них.
Что Неелова великолепная актриса, она хороша как в комедийных, так и в драматических ролях — это ни для кого не новость. Но драматический талант Збруева, вероятно, раскрылся впервые именно в этом фильме. Он потрясающе красноречиво умеет молчать. Это немногим актерам дано.
Самый волнующий момент фильма — сцена у гостиницы с участием «голубка» и швейцара. За песню — отдельное спасибо. Она звучит как гимн в течении всего фильма и прекрасно в него вливается.
10 из 10
Общее
Полное имя : F:\Ты у меня одна\Ty u menja odna.HDTVRip.[pirat.ca].avi
Формат : AVI
Формат/Информация : Audio Video Interleave
Размер файла : 1,30 Гбайт
Продолжительность : 1 ч. 33 м.
Общий поток : 2001 Кбит/сек
Название фильма : Ty u menja odna.HDTVRip.[pirat.ca]
Программа кодирования : VirtualDubMod 1.5.10.3 | www.virtualdub-fr.org || (build 2550/release)
Видео
Идентификатор : 0
Формат : MPEG-4 Visual
Профиль формата : Advanced [email protected]
Параметр BVOP формата : 1
Параметр QPel формата : Нет
Параметр GMC формата : Без точки перехода
Параметр матрицы формата : Выборочная
Идентификатор кодека : XVID
Идентификатор кодека/Подсказка : XviD
Продолжительность : 1 ч. 33 м.
Битрейт : 1800 Кбит/сек
Ширина : 704 пикселя
Высота : 400 пикселей
Соотношение сторон : 16:9
Частота кадров : 25,000 кадров/сек
Цветовое пространство : YUV
Субдискретизация насыщенности : 4:2:0
Битовая глубина : 8 бит
Тип развёртки : Прогрессивная
Метод сжатия : С потерями
Бит/(Пиксели*Кадры) : 0.256
Размер потока : 1,17 Гбайт (90%)
Библиотека кодирования : XviD 1.2.1 (UTC 2008-12-04)
Аудио
Идентификатор : 1
Формат : AC-3
Формат/Информация : Audio Coding 3
Расширение режима : CM (complete main)
Параметр Endianness формата : Big
Идентификатор кодека : 2000
Продолжительность : 1 ч. 33 м.
Вид битрейта : Постоянный
Битрейт : 192 Кбит/сек
Каналы : 2 канала
Расположение каналов : Front: L R
Частота : 48,0 КГц
Частота кадров : 31,250 кадров/сек (1536 spf)
Метод сжатия : С потерями
Размер потока : 128 Мбайт (10%)
Выравнивание : Разделение по промежуткам
Продолжительность промежутка : 40 мс. (1,00 видеокадр)
Время предзагрузки промежутка : 500 мс.
Download / Скачать

Хотите скачать бесплатно? Зарегистрируйтесь на сайте (ссылка на регистрацию). Pirat.ca - самый быстрый торрент трекер в рунете!

Как скачивать  ·   Что такое торрент  ·   Рейтинг и ограничения

Показать сообщения:    
Ответить на тему

Текущее время: Сегодня 00:37

Часовой пояс: GMT + 4



Вы не можете начинать темы
Вы не можете отвечать на сообщения
Вы не можете редактировать свои сообщения
Вы не можете удалять свои сообщения
Вы не можете голосовать в опросах
Вы не можете прикреплять файлы к сообщениям
Вы не можете скачивать файлы

▼ Вниз