ML
     
  Уважаемый Гость!
Вы можете поддержать проект и зарегистрироваться у наших партнеров - онлайн-стратегия MyLands. При регистрации в игре Вы получите код, который сможете активировать после регистрации на pirat.ca и получить 1000 дублонов.

Ваш код:
193c38d0130f05c24de871678ea3ac181461757d
 
     

Ищите женщину (Алла Сурикова) [1982 г., Детективная комедия, HDTVRip]

Ответить на тему
 
Автор
Сообщение

Пост 26-Авг-2016 03:34

[Q] 

somik

Легенда

-Ищите женщину-- Производство: СССР, Гостелерадио, Мосфильм
Режиссер: Алла Сурикова
Жанр: Детективная комедия
Год выпуска: 1982 г.
Продолжительность: 02:23:36
Российская премьера: 1 января 1983
Дата выхода DVD: 11 января 2011, «Парадиз»
В ролях: Софико Чиаурели, Леонид Куравлёв, Сергей Юрский, Александр Абдулов, Елена Соловей, Леонид Ярмольник, Людмила Дмитриева, Елена Укращенок, Владимир Басов, Нина Тер-Осипян-Описание: Иронический детектив по пьесе французского драматурга Р. Тома «История одного убийства». В нотариальной конторе обнаружен покойник. В поиски убийцы включается секретарь конторы, женщина неукротимой энергии.
Постепенно выясняется, что чрезмерная активность самодеятельного «сыщика» не лучшим образом влияет на расследование преступления…-Сэмпл КиноПоиск
Качество видео: HDTVRip
Контейнер: MKV
Видео кодек: MPEG4 AVC
Аудио кодек: AAC
Видео: 960x544, 1940 kbps, 25 fps, 0,149 Bits/(Pixel*Frame)
Аудио: AAC, 48 kHz, 6 ch, 224 kbps
Cубтитры: отсутствуют
Около рабочего стола мадемуазель Постик висит настоящий Scotch.
Все упомянутые в фильме адреса действительно существуют. По адресу Робера де Шаранса (Rue des Gobelins 19), стоит исторический дом, который находится под охраной государства.
В начале 1-й серии Алиса смотрит по телевизору детектив «Свидетелей надо прикончить» с Бельмондо (которого она обожает) в главной роли, и далее пересказывает содержание фильма по телефону подруге. Использованы кадры из фильма «Частный детектив» (L’Alpagueur), в котором главную роль действительно исполняет Бельмондо. Сюжет, рассказываемый Алисой, разумеется, не имеет ничего общего с сюжетом «Частного детектива».
В начале фильма идет панорама Парижа, которую снимали без всякого разрешения на съемку, просто установив камеру в машине.
Все газеты и журналы в фильме действительно французские. На одном журнале даже видна реклама часов Cartier модели Santos.
В начале каждой серии использованы кадры французских кинолент «Частный детектив» (1976) и «Смерть негодяя» (1977).
Спасите женщину
«Ищите женщину» — замечательный фильм с интригующим и захватывающим сюжетом. Очень добрый и душевный фильм, несмотря на то, что он снят в детективном жанре. Этот фильм напоминает мне по своему духу отличные фильмы Игоря Масленникова о Шерлоке Холмсе. Говоря и книгах, хоть фильм «Ищите женщину» и снят по пьесе французского драматурга, а «Шерлок Холмс» — произведение английское, всё равно можно найти в них что-то похожее. Прекрасный юмор здорово украшает этот советский шедевр, а актёрская игра в нём — это просто гениально! Все яркие персонажи навсегда остаются в памяти зрителя…
Софико Чиаурели, Леонид Куравлёв, Леонид Ярмольник, Александр Абдулов, Сергей Юрский — здесь собралось небольшое, но зато какое, количество самых известных актёров того времени. Лично мне благодаря этому фильму навсегда запомнились Ярмольник и Чиаурели. Абдулов, светлая ему память, который являлся для многих женщин идеалом мужской красоты, — один из моих любимых актёров.
Мой вердикт: Этот невероятно добрый и очень интересный фильм стоит посмотреть как и любителям детективного жанра, так и тем, кто просто хочет отдохнуть и получить огромный заряд хорошего настроения. Я бы советовал посмотреть этот фильм абсолютно всем; никто, я уверен, в нём не разочаруется.
10 из 10
КЛАССИКА СОВЕТСКОГО КИНЕМАТОГРАФА!
Общее
Уникальный идентификатор : 177296253034042527238709425795268713306 (0x8562042A9257E39BACF6FD8FEDD59B5A)
Полное имя : F:\Ищите женщину\Ischite Zhenschinu.1982.HDTVRip-AVC.[pirat.ca].mkv
Формат : Matroska
Версия формата : Version 4 / Version 2
Размер файла : 2,17 Гбайт
Продолжительность : 2 ч. 23 м.
Общий поток : 2165 Кбит/сек
Дата кодирования : UTC 2015-11-12 19:34:53
Программа кодирования : mkvmerge v8.5.2 ('Crosses') 64bit
Библиотека кодирования : libebml v1.3.3 + libmatroska v1.4.4
Видео
Идентификатор : 1
Формат : AVC
Формат/Информация : Advanced Video Codec
Профиль формата : [email protected]
Параметр CABAC формата : Да
Параметр ReFrames формата : 12 кадров
Идентификатор кодека : V_MPEG4/ISO/AVC
Продолжительность : 2 ч. 23 м.
Битрейт : 1940 Кбит/сек
Ширина : 960 пикселей
Высота : 544 пикселя
Соотношение сторон : 16:9
Режим частоты кадров : Постоянный
Частота кадров : 25,000 кадров/сек
Цветовое пространство : YUV
Субдискретизация насыщенности : 4:2:0
Битовая глубина : 8 бит
Тип развёртки : Прогрессивная
Бит/(Пиксели*Кадры) : 0.149
Размер потока : 1,95 Гбайт (90%)
Библиотека кодирования : x264 core 130 r2273 b3065e6
Настройки программы : cabac=1 / ref=12 / deblock=1:0:0 / analyse=0x3:0x133 / me=umh / subme=11 / psy=1 / psy_rd=1.15:0.15 / mixed_ref=1 / me_range=32 / chroma_me=1 / trellis=2 / 8x8dct=1 / cqm=0 / deadzone=21,11 / fast_pskip=0 / chroma_qp_offset=-3 / threads=12 / lookahead_threads=3 / sliced_threads=0 / nr=0 / decimate=1 / interlaced=0 / bluray_compat=0 / constrained_intra=0 / bframes=16 / b_pyramid=2 / b_adapt=2 / b_bias=0 / direct=3 / weightb=1 / open_gop=0 / weightp=2 / keyint=250 / keyint_min=25 / scenecut=40 / intra_refresh=0 / rc_lookahead=60 / rc=2pass / mbtree=1 / bitrate=1940 / ratetol=1.0 / qcomp=0.60 / qpmin=0 / qpmax=69 / qpstep=4 / cplxblur=20.0 / qblur=0.5 / ip_ratio=1.40 / aq=1:1.00
Default : Да
Forced : Нет
Аудио
Идентификатор : 2
Формат : AAC
Формат/Информация : Advanced Audio Codec
Профиль формата : HE-AAC / LC
Идентификатор кодека : A_AAC
Продолжительность : 2 ч. 23 м.
Битрейт : 224 Кбит/сек
Каналы : 6 каналов
Расположение каналов : Front: L C R, Side: L R, LFE
Частота : 48,0 КГц / 24,0 КГц
Частота кадров : 23,438 кадра/сек (1024 spf)
Метод сжатия : С потерями
Задержка видео : 531 мс.
Размер потока : 230 Мбайт (10%)
Default : Да
Forced : Нет
Download / Скачать

Хотите скачать бесплатно? Зарегистрируйтесь на сайте (ссылка на регистрацию). Pirat.ca - самый быстрый торрент трекер в рунете!

Как скачивать  ·   Что такое торрент  ·   Рейтинг и ограничения

Показать сообщения:    
Ответить на тему

Текущее время: Сегодня 18:07

Часовой пояс: GMT + 4



Вы не можете начинать темы
Вы не можете отвечать на сообщения
Вы не можете редактировать свои сообщения
Вы не можете удалять свои сообщения
Вы не можете голосовать в опросах
Вы не можете прикреплять файлы к сообщениям
Вы не можете скачивать файлы

▼ Вниз