ML
     
  Уважаемый Гость!
Вы можете поддержать проект и зарегистрироваться у наших партнеров - онлайн-стратегия MyLands. При регистрации в игре Вы получите код, который сможете активировать после регистрации на pirat.ca и получить 1000 дублонов.

Ваш код:
6f9ab67d502902cc72a06c406977ddb589b7f39d
 
     

Формула любви (Марк Захаров) [1984 г., мелодрама, комедия, BDRip-AVC]

Ответить на тему
 
Автор
Сообщение

Пост 26-Авг-2016 03:51

[Q] 

somik

Легенда

-Формула любви-- Производство: СССР, Гостелерадио, Мосфильм
Режиссер: Марк Захаров
Жанр: мелодрама, комедия
Год выпуска: 1984 г.
Продолжительность: 01:30:11
Российская премьера: 30 декабря 1984
Дата выхода DVD: 11 января 2011, «Парадиз»
Дата выхода Blu-Ray: 3 февраля 2011, «Парадиз»-В ролях: Нодар Мгалоблишвили, Александр Абдулов, Семен Фарада, Елена Валюшкина, Александр Михайлов, Александра Захарова, Елена Аминова, Татьяна Пельтцер, Леонид Броневой-Описание: Музыкальная комедия по мотивам повести Алексея Толстого «Граф Калиостро». В 1780 году Джузеппе Калиостро прибыл в Россию для представления высшей знати. Умыкнув под предлогом лечения отца юную Марью Ивановну, граф пытается влюбить в себя девицу, но безуспешно. В провинциальном поместье, где волею случая оказались путешественники, живет юноша, влюбленный в мраморную статую. С помощью Калиостро он надеется оживить мрамор, но встреча с живой Машей все меняет…-Сэмпл КиноПоиск
Качество видео: BDRip-AVC
Контейнер: MKV
Видео кодек: MPEG4 AVC
Аудио кодек: AC3
Видео: 1008x736, 23.976 fps, ~ 2990 kbps
Аудио: 48 kHz, AC3, 3/2 (L,C,R,l,r) + LFE ch, ~ 448.00 kbps
Cубтитры: отсутствуют
Фильм является вольной экранизацией повести Алексея Толстого «Граф Калиостро».
Во время съёмок Нодар Мгалоблишвили сломал ногу, но замену актёру искать не стали, и он продолжил сниматься, хотя его нога была в гипсе.
Каменная фигура, о которой грезил один из героев фильма, «засветилась» в двух других советских комедиях. В фильме «Старый Новый год» (1980) её в бане лицезреют герои Калягина и Невинного, а также внимательный зритель заметит её на первом этаже офиса в фильме «Служебный роман» (1977).
Ты снова колдуешь любовь, Джузи? (с)
Эта картина не просто о любви молодого человека к девушке, она гораздо глубже. Это грустная повесть о поисках смысла, одиночестве и искренности.
Актерский состав безусловно превосходный, все персонажи, начиная от кузнеца и заканчивая самим Калиостро сотканы из мельчайших деталей.
На мой взгляд, основным элементом этой картины являются диалоги, наполненные глубочайшим смыслом, что во многом и выделяет этот фильм из ряда других комедий. Я думаю, что здесь сложно говорить о жанре. Конечно, здесь много от комедии, но здесь также достаточно драматического.
В сущности перед нами несколько историй любви: история Лоренцы, влюбленной в Калиостро, Алексея питающего слабость к выдуманному образу, его тетушки и ее молодости, наконец, Жакоба и Фимки. И каждая из этих историй настоящая. Замечательно показано отношение к жизни каждого из героев — кто-то из них выбирает простоту и естественность, а кто-то пытается создать эфемерную реальность.
Великолепное музыкальное сопровождение, прекрасные вкрапления юмора с грустной улыбкой.
Закончить этот отзыв можно лишь словами самого графа:
«… Вы мне помогли одну очень важную вещь понять… Что в Любви главное — это не задумываясь отдать свою жизнь за другого… Интересно попробовать…»
10 из 10
Общее
Уникальный идентификатор : 182314794557559190603885893704927898703 (0x89288D5DEAF1351AB517CD3DE1476C4F)
Полное имя : F:\Формула любви\Formula ljubvi.1984.BDRip-AVC.[pirat.ca].mkv
Формат : Matroska
Версия формата : Version 2
Размер файла : 2,17 Гбайт
Продолжительность : 1 ч. 30 м.
Общий поток : 3440 Кбит/сек
Название фильма : Formula.ljubvi.1984
Дата кодирования : UTC 2011-02-05 19:09:50
Программа кодирования : mkvmerge v4.4.0 ('Die Wiederkehr') built on Oct 31 2010 21:52:48
Библиотека кодирования : libebml v1.0.0 + libmatroska v1.0.0
Attachments : Formula.ljubvi.1984.jpg
Видео
Идентификатор : 1
Формат : AVC
Формат/Информация : Advanced Video Codec
Профиль формата : [email protected]
Параметр CABAC формата : Да
Параметр ReFrames формата : 6 кадров
Идентификатор кодека : V_MPEG4/ISO/AVC
Продолжительность : 1 ч. 30 м.
Битрейт : 2990 Кбит/сек
Ширина : 1008 пикселей
Высота : 736 пикселей
Соотношение сторон : 1,370
Режим частоты кадров : Постоянный
Частота кадров : 23,976 (24000/1001) кадра/сек
Цветовое пространство : YUV
Субдискретизация насыщенности : 4:2:0
Битовая глубина : 8 бит
Тип развёртки : Прогрессивная
Бит/(Пиксели*Кадры) : 0.168
Размер потока : 1,84 Гбайт (85%)
Заголовок : Formula.ljubvi.1984
Библиотека кодирования : x264 core 113 r1884 7313bb5
Настройки программы : cabac=1 / ref=6 / deblock=1:-2:-1 / analyse=0x3:0x113 / me=umh / subme=10 / psy=1 / psy_rd=1.00:0.00 / mixed_ref=1 / me_range=32 / chroma_me=1 / trellis=2 / 8x8dct=1 / cqm=0 / deadzone=21,11 / fast_pskip=1 / chroma_qp_offset=-2 / threads=6 / sliced_threads=0 / nr=0 / decimate=1 / interlaced=0 / constrained_intra=0 / bframes=8 / b_pyramid=2 / b_adapt=2 / b_bias=0 / direct=3 / weightb=1 / open_gop=0 / weightp=2 / keyint=250 / keyint_min=23 / scenecut=40 / intra_refresh=0 / rc_lookahead=60 / rc=2pass / mbtree=1 / bitrate=2990 / ratetol=1.0 / qcomp=0.65 / qpmin=0 / qpmax=69 / qpstep=4 / cplxblur=20.0 / qblur=0.5 / vbv_maxrate=25000 / vbv_bufsize=31250 / nal_hrd=none / ip_ratio=1.30 / aq=2:0.90 / zones=440,808,b=4/6250,6865,b=1.5/9595,10600,b=1.5/11443,11771,b=1.5/30232,30522,b=1.5/30631,31151,b=1.5/31956,33600,b=1.5/34527,34740,b=1.5/37320,37750,b=1.5/65425,66065,b=1.5/66362,72170,b=2
Язык : Russian
Default : Да
Forced : Нет
Цветовой диапазон : Limited
Коэффициенты матрицы : BT.709
Аудио
Идентификатор : 2
Формат : AC-3
Формат/Информация : Audio Coding 3
Расширение режима : CM (complete main)
Параметр Endianness формата : Big
Идентификатор кодека : A_AC3
Продолжительность : 1 ч. 30 м.
Вид битрейта : Постоянный
Битрейт : 448 Кбит/сек
Каналы : 6 каналов
Расположение каналов : Front: L C R, Side: L R, LFE
Частота : 48,0 КГц
Частота кадров : 31,250 кадров/сек (1536 spf)
Метод сжатия : С потерями
Размер потока : 289 Мбайт (13%)
Заголовок : BD, 48 kHz, AC3, 3/2 (L,C,R,l,r) + LFE ch, ~ 448.00 kbps
Язык : Russian
Default : Да
Forced : Нет
Меню
00:00:00.000 : en:Chapter 1
00:10:05.479 : en:Chapter 2
00:16:10.928 : en:Chapter 3
00:24:00.105 : en:Chapter 4
00:29:34.689 : en:Chapter 5
00:37:08.893 : en:Chapter 6
00:45:41.572 : en:Chapter 7
00:51:38.637 : en:Chapter 8
01:01:43.700 : en:Chapter 9
01:07:29.962 : en:Chapter 10
01:13:55.430 : en:Chapter 11
01:21:28.675 : en:Chapter 12
Download / Скачать

Хотите скачать бесплатно? Зарегистрируйтесь на сайте (ссылка на регистрацию). Pirat.ca - самый быстрый торрент трекер в рунете!

Как скачивать  ·   Что такое торрент  ·   Рейтинг и ограничения

Показать сообщения:    
Ответить на тему

Текущее время: Сегодня 16:31

Часовой пояс: GMT + 4



Вы не можете начинать темы
Вы не можете отвечать на сообщения
Вы не можете редактировать свои сообщения
Вы не можете удалять свои сообщения
Вы не можете голосовать в опросах
Вы не можете прикреплять файлы к сообщениям
Вы не можете скачивать файлы

▼ Вниз