ML
     
  Уважаемый Гость!
Вы можете поддержать проект и зарегистрироваться у наших партнеров - онлайн-стратегия MyLands. При регистрации в игре Вы получите код, который сможете активировать после регистрации на pirat.ca и получить 1000 дублонов.

Ваш код:
0ea1bf889af42fca5f67d0a391efb3400850ad7c
 
     

Пятьдесят на пятьдесят (Александр Файнциммер) [1973 г., Шпионский детектив, DVDRip]

Ответить на тему
 
Автор
Сообщение

Пост 02-Сен-2016 16:19

[Q] 

somik

Легенда

-Пятьдесят на пятьдесят-- Производство: СССР, Мосфильм
Режиссер: Александр Файнциммер
Жанр: Шпионский детектив
Год выпуска: 1973 г.
Продолжительность: 01:27:05
Российская премьера: 5 февраля 1973
Дата выхода DVD: 27 октября 2009, «Первая Видеокомпания»
В ролях: Василий Лановой, Ирина Скобцева, Владимир Осенев, Игорь Ледогоров, Наталья Величко, Михаил Погоржельский, Геннадий Юдин, Николай Волков...-Описание: Американская и британская разведки проводят крупную совместную операцию. В Подмосковье, уходя от оперативных сотрудников КГБ, погибает курьер американской разведки, шедший на встречу с агентом. Для восстановления связи с агентом руководство ЦРУ посылает опытного разведчика Роберта Маллинза в ГДР, где ему предстоит встретиться с недавно завербованным американцами сотрудником Министерства внешней торговли, который якобы должен стать новым курьером для московского агента. Выполнив поручение, Маллинз должен поступить в распоряжение британского резидента в Западной Германии Понса. Ранее они не встречались. В ГДР Маллинза арестовывают, а затем под его именем в ФРГ отправляется советский разведчик Волгин. Проникнув в логово британской разведки, он должен узнать имя работающего в Москве предателя и сорвать план диверсии, разработанный противником.-Сэмпл КиноПоиск
Качество видео: DVDRip
Контейнер: AVI
Видео кодек: XviD
Аудио кодек: AC3
Видео: 688x320 (2.15:1), 25 fps, XviD build 65 ~2193 kbps avg, 0.40 bit/pixel
Аудио: 48 kHz, AC3 Dolby Digital, 2/0 (L,R) ch, ~192 kbps
Cубтитры: отсутствуют
Общее
Полное имя : D:\D\Пятьдесят на пятьдесят\Pjatjdesjat na pjatjdesjat.1972.DVDRip.[pirat.ca].avi
Формат : AVI
Формат/Информация : Audio Video Interleave
Размер файла : 1,46 Гбайт
Продолжительность : 1 ч. 27 м.
Общий поток : 2396 Кбит/сек
Название фильма : Pjatjdesjat na pjatjdesjat.1972.DVDRip.[pirat.ca]
Программа кодирования : VirtualDubModRus 1.5.10.2 (build 2542/release)
Видео
Идентификатор : 0
Формат : MPEG-4 Visual
Профиль формата : Advanced [email protected]
Параметр BVOP формата : 1
Параметр QPel формата : Нет
Параметр GMC формата : Без точки перехода
Параметр матрицы формата : Выборочная
Идентификатор кодека : XVID
Идентификатор кодека/Подсказка : XviD
Продолжительность : 1 ч. 27 м.
Битрейт : 2194 Кбит/сек
Ширина : 688 пикселей
Высота : 320 пикселей
Соотношение сторон : 2,2:1
Частота кадров : 25,000 кадров/сек
Цветовое пространство : YUV
Субдискретизация насыщенности : 4:2:0
Битовая глубина : 8 бит
Тип развёртки : Прогрессивная
Метод сжатия : С потерями
Бит/(Пиксели*Кадры) : 0.399
Размер потока : 1,33 Гбайт (92%)
Библиотека кодирования : XviD 65
Аудио
Идентификатор : 1
Формат : AC-3
Формат/Информация : Audio Coding 3
Расширение режима : CM (complete main)
Параметр Endianness формата : Big
Идентификатор кодека : 2000
Продолжительность : 1 ч. 27 м.
Вид битрейта : Постоянный
Битрейт : 192 Кбит/сек
Каналы : 2 канала
Расположение каналов : Front: L R
Частота : 48,0 КГц
Частота кадров : 31,250 кадров/сек (1536 spf)
Метод сжатия : С потерями
Размер потока : 120 Мбайт (8%)
Выравнивание : Разделение по промежуткам
Продолжительность промежутка : 40 мс. (1,00 видеокадр)
Время предзагрузки промежутка : 500 мс.
Download / Скачать

Хотите скачать бесплатно? Зарегистрируйтесь на сайте (ссылка на регистрацию). Pirat.ca - самый быстрый торрент трекер в рунете!

Как скачивать  ·   Что такое торрент  ·   Рейтинг и ограничения

Показать сообщения:    
Ответить на тему

Текущее время: Сегодня 00:32

Часовой пояс: GMT + 4



Вы не можете начинать темы
Вы не можете отвечать на сообщения
Вы не можете редактировать свои сообщения
Вы не можете удалять свои сообщения
Вы не можете голосовать в опросах
Вы не можете прикреплять файлы к сообщениям
Вы не можете скачивать файлы

▼ Вниз