ML
     
  Уважаемый Гость!
Вы можете поддержать проект и зарегистрироваться у наших партнеров - онлайн-стратегия MyLands. При регистрации в игре Вы получите код, который сможете активировать после регистрации на pirat.ca и получить 1000 дублонов.

Ваш код:
e93cd9e43017f251127f220889864c05934e61c6
 
     

Опасный возраст (ТВ) (Александр Прошкин) [1981 г., Лирическая комедия, DVDRip]

Ответить на тему
 
Автор
Сообщение

Пост 08-Сен-2016 14:49

[Q] 

somik

Легенда

-Опасный возраст (ТВ)-- Производство: СССР, ТО Экран
Режиссер: Александр Прошкин
Жанр: Лирическая комедия
Год выпуска: 1981 г.
Продолжительность: 01:23:56
Российская премьера: 20 октября 1981
Дата выхода DVD: 10 декабря 2009, «Мастер Тэйп»
В ролях: Алиса Фрейндлих, Юозас Будрайтис, Антон Табаков, Жанна Болотова, Никита Подгорный, Михаил Водяной, Виктор Перевалов, Борис Химичев, Инна Ульянова.-Описание: Сорокалетние супруги Родимцевы, прожившие вместе два десятка лет, вдруг обнаруживают, что надоели друг другу. Суд, бракоразводный процесс, размен квартиры. Однако не все так просто: муж — главный эксперт парфюмерной фабрики Наркис Родимцев вдруг лишается своего главного дара — способности различать запахи, жена — Лилия Родимцева «ставит крест» на научной работе, а их сын, Дима Родимцев, уезжает из Москвы поступать в мореходное училище…-Сэмпл КиноПоиск
Качество видео: DVDRip
Контейнер: AVI
Видео кодек: XviD
Аудио кодек: AC3
Видео: 704x528 (1.33:1), 25 fps, XviD Final 1.0.3 (build 37) ~2068 kbps avg, 0.22 bit/pixel
Аудио: 48 kHz, AC3 Dolby Digital, 2/0 (L,R) ch, ~256 kbps
Cубтитры: отсутствуют
Приз Интервидения на МКФ телефильмов в Праге в 1982 году.
Можно посмотреть… и не один раз.
«Опасный возраст» — это очень интересный, добрый и веселый фильм об уже взрослых людях, решивших развестись. Я думаю, тут мы наблюдаем некий кризис в жизни людей. Их ребенок уже вырос и, как будто, отпадает необходимость вести совместное хозяйство, ведь жить по отдельности кажется значительно проще.
Но, оказывается, супружество — это не только быт (хотя он, конечно, очень важен). У Наркиса и Лилии еще есть общие друзья, ставшие общими родственники. Более того, у них есть общий сын, который предпочел бы, чтобы они жили вместе. Еще у них есть общие воспоминания…
И вот наши герои увидели, что с разводом приходит множество других, новых проблем. А потом, отдохнув друг от друга, поняли, что не так-то и плох был их брак.
И вообще, мне кажется, что Лилию просто доводил ее начальник, а срывалась она на муже. Сменив же работу она значительно повеселела.
Общее
Полное имя : J:\Опасный возраст\Opasnyj vozrast.1981.DVDRip.[pirat.ca].avi
Формат : AVI
Формат/Информация : Audio Video Interleave
Размер файла : 1,37 Гбайт
Продолжительность : 1 ч. 23 м.
Общий поток : 2331 Кбит/сек
Название фильма : Opasnyj vozrast.1981.DVDRip.[pirat.ca]
Программа кодирования : VirtualDubMod 1.5.4.1 (build 2178/release)
Видео
Идентификатор : 0
Формат : MPEG-4 Visual
Профиль формата : [email protected]
Параметр BVOP формата : 1
Параметр QPel формата : Нет
Параметр GMC формата : Без точки перехода
Параметр матрицы формата : Выборочная
Идентификатор кодека : XVID
Идентификатор кодека/Подсказка : XviD
Продолжительность : 1 ч. 23 м.
Битрейт : 2068 Кбит/сек
Ширина : 704 пикселя
Высота : 528 пикселей
Соотношение сторон : 4:3
Частота кадров : 25,000 кадров/сек
Цветовое пространство : YUV
Субдискретизация насыщенности : 4:2:0
Битовая глубина : 8 бит
Тип развёртки : Прогрессивная
Метод сжатия : С потерями
Бит/(Пиксели*Кадры) : 0.223
Размер потока : 1,21 Гбайт (89%)
Библиотека кодирования : XviD 1.0.3 (UTC 2004-12-20)
Аудио
Идентификатор : 1
Формат : AC-3
Формат/Информация : Audio Coding 3
Расширение режима : CM (complete main)
Параметр Endianness формата : Big
Идентификатор кодека : 2000
Продолжительность : 1 ч. 23 м.
Вид битрейта : Постоянный
Битрейт : 256 Кбит/сек
Каналы : 2 канала
Расположение каналов : Front: L R
Частота : 48,0 КГц
Частота кадров : 31,250 кадров/сек (1536 spf)
Метод сжатия : С потерями
Размер потока : 154 Мбайт (11%)
Выравнивание : Разделение по промежуткам
Продолжительность промежутка : 96 мс. (2,40 видеокадра)
Время предзагрузки промежутка : 96 мс.
Download / Скачать

Хотите скачать бесплатно? Зарегистрируйтесь на сайте (ссылка на регистрацию). Pirat.ca - самый быстрый торрент трекер в рунете!

Как скачивать  ·   Что такое торрент  ·   Рейтинг и ограничения

Показать сообщения:    
Ответить на тему

Текущее время: Сегодня 04:28

Часовой пояс: GMT + 4



Вы не можете начинать темы
Вы не можете отвечать на сообщения
Вы не можете редактировать свои сообщения
Вы не можете удалять свои сообщения
Вы не можете голосовать в опросах
Вы не можете прикреплять файлы к сообщениям
Вы не можете скачивать файлы

▼ Вниз