ML
     
  Уважаемый Гость!
Вы можете поддержать проект и зарегистрироваться у наших партнеров - онлайн-стратегия MyLands. При регистрации в игре Вы получите код, который сможете активировать после регистрации на pirat.ca и получить 1000 дублонов.

Ваш код:
47bfc18b89c74e4ae0d974e9b6943639e2bff08e
 
     

Каин XVIII (Надежда Кошеверова, Михаил Шапиро) [1963 г., фэнтези, мелодрама, приключения, 6+, DVDRip]

Ответить на тему
 
Автор
Сообщение

Пост 09-Окт-2016 05:45

[Q] 

somik

Легенда

-Каин XVIII-- Производство: СССР, Ленфильм
Режиссер: Надежда Кошеверова, Михаил Шапиро
Жанр: фэнтези, мелодрама, приключения, 6+
Год выпуска: 1963 г.
Продолжительность: 01:29:06
Российская премьера: 5 августа 1963
В ролях: Александр Демьяненко, Лидия Сухаревская, Эраст Гарин, Юрий Любимов, Михаил Жаров, Рина Зеленая, Бруно Фрейндлих, Михаил Глузский, Георгий Вицин, Борис Чирков, Яков Гудкин, Борис Аракелов, Станислав Хитров, Гликерия Богданова-Чеснокова-Описание: Бродячий музыкант влюбляется в принцессу, которую хотят отдать за старика-короля из соседнего королевства, самодура и подлеца. Но любовь преодолевает преграды и соединяет сердца влюбленных.-Сэмпл КиноПоиск
Качество видео: DVDRip
Контейнер: AVI
Видео кодек: DivX
Аудио кодек: AC3
Видео: 704x528 (1.33:1), 25 fps, DivX Codec 6.8.3 ~1994 kbps avg, 0.21 bit/pixel
Аудио: 48 kHz, AC3 Dolby Digital, 2/0 (L,R) ch, ~192 kbps
Фильм снят по пьесе Евгения Шварца «Голый король».
Каждый сам себе король.
Наступил XXI век. Страна вернулась к капитализму, причём к худшему её варианту. Скоро начнём запускать атомных комаров на Украину. Бродячие музыканты, говорящие правду, сидят в тюрьме. Каинова печать- Первый канал, НТВ, журналы, газеты, кино. И с грустью начинаешь понимать, как были правы Оруэлл, Носов и Шварц. В особенности последний.
«Каин XVIII»-гениальнейшее произведение советского кинематографа. Тут есть любовь, искромётный юмор и сатира. Атмосфера старых сказок о королях, принцессах, и историях «из грязи-в князи» приобретает неожиданно остросоциальную окраску, особенно актуальную сейчас. Привычного сейчас постмодерна здесь немного (запомнилось разве что «у министра финансов звонок не работает»), но это было бы излишне. Юмор очень мягкий, но местами смешной до колик:
«Тиранам скидка», «500 — обожаемому, 300 — уважаемому», но особенно понравилось: «Всё, что стремится освободиться, мне не годится». Много известных артистов: будущий Шурик Демьяненко, Эраст Гарин, чей мягкий уникальный голос очень нравился мне в детстве, Жаров, Вицин и многие другие доставят вам несомненное удовольствие!
Под конец скажу: лучше всего смотреть это сейчас, потому что у вас возникнут (если вы хорошо разбираетесь в политике) ассоциации: Каин-Путин, Авель-Украина, Власта-Меркель, бродячие музыканты… хм, Пусси Райот. После фильма так и хочется сделать что-нибудь такое, что принесёт людям радость, а это случается не после каждого фильма!
10 из 10
«погодите кадить!»
Вот мне совершенно непонятно КАК этот фильм сняли и выпустили в советское время! Там же крамола на крамоле! «Быстро мы сегодня отликовались!…» «Кормить надо только тех солдат, что без пушек, остальные сами себя прокормят!» «500 — обожаемому, 300 — уважаемому».
Бродячий музыкант (Демьяненко), в самом деле, влюбляется в принцессу. Матушка ее, узнав о нежных чувствах молодых, стремительно спешит выдать дочку замуж за соседнего короля преклонных лет (Эраст Гарин) — самодура, деспота и разжигателя войн. Музыкант с другом скачут принцессу вырывать из цепких лап, а параллельно развивается интрига с ученым в области нанотехнологий и его изобретением — вроде бы в мирных целях комар был напичкан взрывчатым веществом несметного количества в тротиловом эквиваленте…
В этом фильме настолько важен эпизод! Как иначе могли создатели передать все намёки и полунамёки?
Обидно, что почти совсем не показывают по ТВ, может опять цензура?!
Общее
Полное имя : J:\Каин XVIII\Kain-XVIII.1963.DVDRip.[pirat.ca].avi
Формат : AVI
Формат/Информация : Audio Video Interleave
Размер файла : 1,37 Гбайт
Продолжительность : 1 ч. 29 м.
Общий поток : 2196 Кбит/сек
Программа кодирования : VirtualDubModRus 1.5.10.2 (build 2542/release)
Библиотека кодирования : VirtualDubMod build 2542/release
Видео
Идентификатор : 0
Формат : MPEG-4 Visual
Параметр BVOP формата : 1
Параметр QPel формата : Нет
Параметр GMC формата : Без точки перехода
Параметр матрицы формата : Default (H.263)
Режим смешивания : Сжатый битовый поток
Идентификатор кодека : DX50
Идентификатор кодека/Подсказка : DivX 5
Продолжительность : 1 ч. 29 м.
Битрейт : 1995 Кбит/сек
Ширина : 704 пикселя
Высота : 528 пикселей
Соотношение сторон : 4:3
Частота кадров : 25,000 кадров/сек
Цветовое пространство : YUV
Субдискретизация насыщенности : 4:2:0
Битовая глубина : 8 бит
Тип развёртки : Прогрессивная
Метод сжатия : С потерями
Бит/(Пиксели*Кадры) : 0.215
Размер потока : 1,24 Гбайт (91%)
Библиотека кодирования : DivX 6.8.3-6.8.4 (UTC 2008-06-07)
Аудио
Идентификатор : 1
Формат : AC-3
Формат/Информация : Audio Coding 3
Расширение режима : CM (complete main)
Параметр Endianness формата : Big
Идентификатор кодека : 2000
Продолжительность : 1 ч. 29 м.
Вид битрейта : Постоянный
Битрейт : 192 Кбит/сек
Каналы : 2 канала
Расположение каналов : Front: L R
Частота : 48,0 КГц
Частота кадров : 31,250 кадров/сек (1536 spf)
Метод сжатия : С потерями
Размер потока : 122 Мбайт (9%)
Выравнивание : Соединение по промежуткам
Продолжительность промежутка : 40 мс. (1,00 видеокадр)
Время предзагрузки промежутка : 512 мс.
Download / Скачать

Хотите скачать бесплатно? Зарегистрируйтесь на сайте (ссылка на регистрацию). Pirat.ca - самый быстрый торрент трекер в рунете!

Как скачивать  ·   Что такое торрент  ·   Рейтинг и ограничения

Показать сообщения:    
Ответить на тему

Текущее время: Сегодня 07:04

Часовой пояс: GMT + 4



Вы не можете начинать темы
Вы не можете отвечать на сообщения
Вы не можете редактировать свои сообщения
Вы не можете удалять свои сообщения
Вы не можете голосовать в опросах
Вы не можете прикреплять файлы к сообщениям
Вы не можете скачивать файлы

▼ Вниз