ML
     
  Уважаемый Гость!
Вы можете поддержать проект и зарегистрироваться у наших партнеров - онлайн-стратегия MyLands. При регистрации в игре Вы получите код, который сможете активировать после регистрации на pirat.ca и получить 1000 дублонов.

Ваш код:
e6008d9811a0b6a1393c3dc51ecd7bc35637bc21
 
     

Мой любимый клоун (Юрий Кушнерев) [1987 г., драма, мелодрама, DVDRip]

Ответить на тему
 
Автор
Сообщение

Пост 10-Окт-2016 04:15

[Q] 

somik

Легенда

-Мой любимый клоун-- Производство: СССР, Мосфильм
Режиссер: Юрий Кушнерев
Жанр: драма, мелодрама
Год выпуска: 1987 г.
Продолжительность: 01:21:03
Российская премьера: 2 марта 1987
В ролях: Олег Меньшиков, Илья Тюрин, Владимир Ильин, Татьяна Догилева, Олег Стриженов, Арчил Гомиашвили, Ольга Битюкова, Лионелла Пырьева, Евгений Гаврилин, Е. Бреславская-Описание: Молодой артист цирка — клоун Сергей Синицын решает усыновить шестилетнего детдомовца Ваньку. Все обстоятельства против такого решения, но клоун не меняет его. Его профессия — смешить людей, он любит их повеселить. Но не любит обманывать и предавать.-Сэмпл КиноПоиск
Качество видео: DVDRip
Контейнер: AVI
Видео кодек: XviD
Аудио кодек: AC3
Видео: 720x544 (1.32:1), 25 fps, XviD build 47 ~2216 kbps avg, 0.23 bit/pixel
Аудио: 48 kHz, AC3 Dolby Digital, 2/0 (L,R) ch, ~192 kbps
Cубтитры: отсутствуют
Фильм по повести Василия Ливанова (любимого всеми Шерлока Холмса). Я бы посмотрел его только за один этот факт. Плюс в главных ролях — Олег Меньшиков и Владимир Ильин. Оба — фантастические актеры, показавшие себя и в этом фильме только с лучшей стороны.
Ситуация, описываемая в картине, не самая стандартная — молодая пара решает взять из детского дома мальчика шести лет. Но в самый последний момент, науськиваемая матерью, женская половина пары передумывает. Ее личные приоритеты оказались важнее семейных. И тогда клоун Сергей Синицын решает, что возьмет пацана и один.
Это кино о вечных ценностях: о любви, о дружбе, о детях. И, главное, оно невероятно талантливое. Моя любимая цитата:
- Угадай, почему мозг клоуна стоит десять копеек за килограмм, а мозг силового жонглера десять тысяч за один только грамм? Почему такая несправедливость?
Потому что мозги силовых жонглеров — это дефицит! Понял?…
А любимая сцена — кормление Ваньки. Когда друзья очень торопятся, а мальчик кушает не спеша, «с чувством, с толком, с расстановкой», запихнув в малыша последнюю ложку каши, Синицын воскликнул:
- Слава богу!
- Не слава богу, а слава труду.
А дальше начинаются трудности, которые не могли не начаться. Ребенок, особенно взрослый, это всегда ворох проблем. И герою предстоят серьезные испытания. Но он уже сделал свой выбор. И действие фильма показывает, что выбор этот был вполне сознательный, в отличие от выбора его пассии, от которого та с легкостью отказалась…
- Пап, а почему у тигра язык высунутый?
- Ну как почему. Ему жарко.
- А почему он шубу не снимет?
- Действительно, почему?
- Потому что у него нет рук, одни ноги!
Милый, трогательный, замечательный фильм, для любого возраста.
10 из 10
Общее
Полное имя : E:\Мой любимый клоун (1987)\Moj ljubimij kloun.1987.DVDRip.[pirat.ca].avi
Формат : AVI
Формат/Информация : Audio Video Interleave
Размер файла : 1,37 Гбайт
Продолжительность : 1 ч. 21 м.
Общий поток : 2415 Кбит/сек
Программа кодирования : VirtualDubMod 1.5.4.1 (build 2178/release)
Библиотека кодирования : VirtualDubMod build 2178/release
Видео
Идентификатор : 0
Формат : MPEG-4 Visual
Профиль формата : Advanced [email protected]
Параметр BVOP формата : 1
Параметр QPel формата : Нет
Параметр GMC формата : Без точки перехода
Параметр матрицы формата : Выборочная
Идентификатор кодека : XVID
Идентификатор кодека/Подсказка : XviD
Продолжительность : 1 ч. 21 м.
Битрейт : 2216 Кбит/сек
Ширина : 720 пикселей
Высота : 544 пикселя
Соотношение сторон : 4:3
Частота кадров : 25,000 кадров/сек
Цветовое пространство : YUV
Субдискретизация насыщенности : 4:2:0
Битовая глубина : 8 бит
Тип развёртки : Прогрессивная
Метод сжатия : С потерями
Бит/(Пиксели*Кадры) : 0.226
Размер потока : 1,25 Гбайт (92%)
Библиотека кодирования : XviD 1.2.0.dev47 (UTC 2006-11-01)
Аудио
Идентификатор : 1
Формат : AC-3
Формат/Информация : Audio Coding 3
Расширение режима : CM (complete main)
Параметр Endianness формата : Big
Идентификатор кодека : 2000
Продолжительность : 1 ч. 21 м.
Вид битрейта : Постоянный
Битрейт : 192 Кбит/сек
Каналы : 2 канала
Расположение каналов : Front: L R
Частота : 48,0 КГц
Частота кадров : 31,250 кадров/сек (1536 spf)
Метод сжатия : С потерями
Размер потока : 111 Мбайт (8%)
Выравнивание : Разделение по промежуткам
Продолжительность промежутка : 96 мс. (2,40 видеокадра)
Время предзагрузки промежутка : 96 мс.
Язык : Russian
Download / Скачать

Хотите скачать бесплатно? Зарегистрируйтесь на сайте (ссылка на регистрацию). Pirat.ca - самый быстрый торрент трекер в рунете!

Как скачивать  ·   Что такое торрент  ·   Рейтинг и ограничения

Показать сообщения:    
Ответить на тему

Текущее время: Сегодня 01:59

Часовой пояс: GMT + 4



Вы не можете начинать темы
Вы не можете отвечать на сообщения
Вы не можете редактировать свои сообщения
Вы не можете удалять свои сообщения
Вы не можете голосовать в опросах
Вы не можете прикреплять файлы к сообщениям
Вы не можете скачивать файлы

▼ Вниз