ML
     
  Уважаемый Гость!
Вы можете поддержать проект и зарегистрироваться у наших партнеров - онлайн-стратегия MyLands. При регистрации в игре Вы получите код, который сможете активировать после регистрации на pirat.ca и получить 1000 дублонов.

Ваш код:
6f9ab67d502902cc72a06c406977ddb589b7f39d
 
     

Город Зеро (Карен Шахназаров) [1988 г., фантастика, драма, комедия, детектив, BDRip] Лицензия

Ответить на тему
 
Автор
Сообщение

Пост 11-Окт-2016 23:04

[Q] 

somik

Легенда

-Город Зеро-- Производство: СССР, Мосфильм
Режиссер: Карен Шахназаров
Жанр: фантастика, драма, комедия, детектив
Год выпуска: 1988 г.
Продолжительность: 01:41:44
Дата выхода DVD: 18 октября 2012, «Азимут»
Дата выхода Blu-Ray: 10 декабря 2013, «Lizard Cinema Trade»-В ролях: Леонид Филатов, Олег Басилашвили, Владимир Меньшов, Армен Джигарханян, Евгений Евстигнеев, Алексей Жарков, Петр Щербаков, Юрий Шерстнев, Елена Аржаник, Татьяна Хвостикова-Описание: Отправившись в командировку, герой фильма неожиданно попадет в фантастический город. Он очень похож на наш мир, только скрытая абсурдность повседневной жизни здесь стала явной. Город Зеро открывает герою одну тайну за другой, и вернуться в привычную реальность становится все трудней…-Сэмпл КиноПоиск
Качество видео: BDRip
Контейнер: AVI
Видео кодек: XviD
Аудио кодек: AC3
Видео: 704x512 (1.38:1), 23.976 fps, XviD build 65 2353 kbps avg, 0.27 bit/pixel
Аудио: 48 kHz, AC3 Dolby Digital, 3/2 (L,C,R,l,r) + LFE ch, 448 kbps
Cубтитры: отсутствуют
В качестве восковых фигур в фильме были использованы музыканты из групп «Коррозия Металла» и «ДИВ».
Ника, 1990 год
Номинации (1):
Лучшая работа художника-постановщика
Низвержение в Зеро.
Это первая моя рецензия на этом сайте, и я нисколечки не натренирован в их написании.
Сюжет
Инженер Варакин из столицы переезжает в некий город, где друг за другом следуют абсурдные события. Для начала ему не выдают пропуск, в приемной сидит нагая «как Ева в Эдеме», секретарша и ни в чем не бывало набирает что-то на печатной машинке, в столовой Варакину приносят шоколадный торт, в точности копирующий его голову, и. т. д.
Отрадно видеть русский абсурд. Он такой, какой он есть. Отчасти это может и можно воспринять как пародию на Советы, но мне эта непоследовательная, но тщательно выверенная в своей абсурдности схема более напомнила гибрид Бунюэля (скромное обаяние буржуазии) с Кафкой (рассказы). Этот абсурд сформировался в кажущемся отсутствии иерархии.
Жанр. Так. Здесь все сложнее Сюрреализм? Но где же тогда здесь сны? Комедия? Но это скорее уж поздний Бунюэль. Пророчество? Да где же такой жанр найти? Фантасмагорический триллер? Да, пожалуй. Фантасмагории хоть отбавляй, и загадок от этого не меньше. Но фильм показался одни из лучших в позднесоветских. Но что из этого следует? Глубокое пророчество? Или предзакатная рябь реки, по которой никуда не уехать… Смотреть и пересматривать, для русского, Советского и мирового кинематографа это огромный шаг вперед.
10 из 10
Мы рождены, чтоб Кафку сделать былью
Инженер Алексей Варакин отправляется в командировку в город под названием Зеро, чтобы на месте выяснить отношения с заводом-поставщиком кондиционеров при совместном переходе на хозрасчёт. В приёмной директора он застаёт обнажённую секретаршу, как нив чем не бывало поливающую цветы, а в местном ресторане ему подают странный торт в форме детально вылепленной копии его, варакинской, головы. Затем простодушные и обольстительные обитатели города незаметно начинают втягивать инженера в опасную игру с непонятными для него правилами.
Варакин посещает местный краеведческий музей, походящий не то на заповедник всемирного прошлого, не то на кунсткамеру оживших восковых фигур, заходит на рок-н-рольную тусовку, после чего вместе с отцами города совершает ещё и путешествие к старому дубу… Как и Алиса в Зазеркалье, герой становится участником целого каскада аттракционов, в которых стерта грань между здравым смыслом и сюрреалистическим бредом, кошмаром и сном, нормой и аномалиями.
Город Зеро предстаёт неким кафкианским миром с нарушенными причинно-следственными связями. Повышенная концентрация соцреализма с гипертрофированными жизнеподобными деталями оборачивается в итоге и фантасмагорией, и абсурдистским фарсом, где в иррациональном виде предстают национально-культурные и социальные мифологемы и образ советского человека с его идеалами и манерой поведения.
Общее
Полное имя : F:\Город Зеро\Gorod Zero.1989.BDRip.[pirat.ca].avi
Формат : AVI
Формат/Информация : Audio Video Interleave
Профиль формата : OpenDML
Размер файла : 2,00 Гбайт
Продолжительность : 1 ч. 41 м.
Общий поток : 2809 Кбит/сек
Программа кодирования : VirtualDubMod 1.5.10.2 (build 2542/release)
Видео
Идентификатор : 0
Формат : MPEG-4 Visual
Профиль формата : Advanced [email protected]
Параметр BVOP формата : 1
Параметр QPel формата : Нет
Параметр GMC формата : Без точки перехода
Параметр матрицы формата : Выборочная
Идентификатор кодека : XVID
Идентификатор кодека/Подсказка : XviD
Продолжительность : 1 ч. 41 м.
Битрейт : 2348 Кбит/сек
Ширина : 704 пикселя
Высота : 512 пикселей
Соотношение сторон : 1,375
Частота кадров : 23,976 (24000/1001) кадра/сек
Цветовое пространство : YUV
Субдискретизация насыщенности : 4:2:0
Битовая глубина : 8 бит
Тип развёртки : Прогрессивная
Метод сжатия : С потерями
Бит/(Пиксели*Кадры) : 0.272
Размер потока : 1,67 Гбайт (84%)
Библиотека кодирования : XviD 65
Аудио
Идентификатор : 1
Формат : AC-3
Формат/Информация : Audio Coding 3
Расширение режима : CM (complete main)
Параметр Endianness формата : Big
Идентификатор кодека : 2000
Продолжительность : 1 ч. 41 м.
Вид битрейта : Постоянный
Битрейт : 448 Кбит/сек
Каналы : 6 каналов
Расположение каналов : Front: L C R, Side: L R, LFE
Частота : 48,0 КГц
Частота кадров : 31,250 кадров/сек (1536 spf)
Метод сжатия : С потерями
Размер потока : 326 Мбайт (16%)
Выравнивание : Разделение по промежуткам
Продолжительность промежутка : 42 мс. (1,00 видеокадр)
Время предзагрузки промежутка : 500 мс.
Download / Скачать

Хотите скачать бесплатно? Зарегистрируйтесь на сайте (ссылка на регистрацию). Pirat.ca - самый быстрый торрент трекер в рунете!

Как скачивать  ·   Что такое торрент  ·   Рейтинг и ограничения

raul kurochka

Корсар

Пост 12-Окт-2016 01:56 (спустя 2 часа 52 минуты)

[Q] 

Обнаженка?! В 88ом году?! Афигеть!!!
Еще во времена полу-подпольных видео прокатов в одном из наиболее часто посещаемых мной и моим папой висел на стене плакат с тортом в виде головы Филатова. Всегда хотел его посмотреть, но так и не удалось. И вот теперь, спустя почти 20 лет я наконец его гляну. Трепещу в предвкушении. (не из-за обнаженки, разумеется)
г-дин SOMIK - респект Вам и уважуха, как обычно Лови бочку

_________________
...ЧО ТАКОЙ СЕРЬЕЗНЫЙ???
[Профиль]  [ЛС] 
Показать сообщения:    
Ответить на тему

Текущее время: Сегодня 16:28

Часовой пояс: GMT + 4



Вы не можете начинать темы
Вы не можете отвечать на сообщения
Вы не можете редактировать свои сообщения
Вы не можете удалять свои сообщения
Вы не можете голосовать в опросах
Вы не можете прикреплять файлы к сообщениям
Вы не можете скачивать файлы

▼ Вниз