ML
     
  Уважаемый Гость!
Вы можете поддержать проект и зарегистрироваться у наших партнеров - онлайн-стратегия MyLands. При регистрации в игре Вы получите код, который сможете активировать после регистрации на pirat.ca и получить 1000 дублонов.

Ваш код:
34514219cfad5497a1822ecc1269bea77988f9aa
 
     

Безумный день инженера Баркасова (Николай Лырчиков) [1982 г., комедия, SATRip]

Ответить на тему
 
Автор
Сообщение

Пост 13-Окт-2016 19:24

[Q] 

somik

Легенда

-Безумный день инженера Баркасова -- Производство: СССР, Студия Горького
Режиссер: Николай Лырчиков
Жанр: комедия
Год выпуска: 1982 г.
Продолжительность: 02:05:57
Российская премьера: СССР 9 апреля 1983
В ролях: Василий Бочкарёв, Наталья Сайко, Евгения Ханаева, Валентина Теличкина, Михаил Кононов, Ирина Резникова, Ольга Остроумова, Игорь Дмитриев, Андрей Мартынов, Пётр Щербаков, Виктор Сергачёв, Афанасий Кочетков, Валентина Талызина, Вячеслав Невинный, Александр Лазарев, Борис Новиков, Зоя Василькова, Георгий Милляр, Владимир Грамматиков, Мария Скворцова, Миша Зусман, Ирэна Дубровская (Кокрятская), Михаил Бочаров, Борис Гитин, Станислав Коренев, Артур Нищёнкин (озвучание - Юрий Саранцев), Надежда Самсонова-Описание: Телеводевиль по произведениям Михаила Зощенко.
Инженер Баркасов, переживший ряд нелепых приключений и анекдотических ситуаций, в конце концов подвергает сомнению свои жизненные принципы и идеалы.-Сэмпл КиноПоиск
Качество видео: SATRip
Контейнер: AVI
Видео кодек: XviD
Аудио кодек: AC3
Видео: 704x512 (1.38:1), 25 fps, XviD build 65 ~2285 kbps avg, 0.25 bit/pixel
Аудио: 48 kHz, AC3 Dolby Digital, 2/0 (L,R) ch, ~192 kbps
Cубтитры: отсутствуют
Общее
Полное имя : J:\Безумный день инженера Баркасова\Bezumny denj inzhenera Barkasova.[pirat.ca]\Bezumnyj.den.inzhenera.Barkasova.01.[pirat.ca].avi
Формат : AVI
Формат/Информация : Audio Video Interleave
Размер файла : 1,09 Гбайт
Продолжительность : 1 ч. 2 м.
Общий поток : 2488 Кбит/сек
Программа кодирования : VirtualDubMod 1.5.10.3 | www.virtualdub-fr.org || (build 2550/release)
Видео
Идентификатор : 0
Формат : MPEG-4 Visual
Профиль формата : Advanced [email protected]
Параметр BVOP формата : 1
Параметр QPel формата : Нет
Параметр GMC формата : Без точки перехода
Параметр матрицы формата : Выборочная
Идентификатор кодека : XVID
Идентификатор кодека/Подсказка : XviD
Продолжительность : 1 ч. 2 м.
Битрейт : 2286 Кбит/сек
Ширина : 704 пикселя
Высота : 512 пикселей
Соотношение сторон : 1,375
Частота кадров : 25,000 кадров/сек
Цветовое пространство : YUV
Субдискретизация насыщенности : 4:2:0
Битовая глубина : 8 бит
Тип развёртки : Прогрессивная
Метод сжатия : С потерями
Бит/(Пиксели*Кадры) : 0.254
Размер потока : 1,00 Гбайт (92%)
Библиотека кодирования : XviD 65
Аудио
Идентификатор : 1
Формат : AC-3
Формат/Информация : Audio Coding 3
Расширение режима : CM (complete main)
Параметр Endianness формата : Big
Идентификатор кодека : 2000
Продолжительность : 1 ч. 2 м.
Вид битрейта : Постоянный
Битрейт : 192 Кбит/сек
Каналы : 2 канала
Расположение каналов : Front: L R
Частота : 48,0 КГц
Частота кадров : 31,250 кадров/сек (1536 spf)
Метод сжатия : С потерями
Размер потока : 86,4 Мбайт (8%)
Выравнивание : Разделение по промежуткам
Продолжительность промежутка : 40 мс. (1,00 видеокадр)
Время предзагрузки промежутка : 500 мс.
Download / Скачать

Хотите скачать бесплатно? Зарегистрируйтесь на сайте (ссылка на регистрацию). Pirat.ca - самый быстрый торрент трекер в рунете!

Как скачивать  ·   Что такое торрент  ·   Рейтинг и ограничения

Показать сообщения:    
Ответить на тему

Текущее время: Сегодня 07:54

Часовой пояс: GMT + 4



Вы не можете начинать темы
Вы не можете отвечать на сообщения
Вы не можете редактировать свои сообщения
Вы не можете удалять свои сообщения
Вы не можете голосовать в опросах
Вы не можете прикреплять файлы к сообщениям
Вы не можете скачивать файлы

▼ Вниз