ML
     
  Уважаемый Гость!
Вы можете поддержать проект и зарегистрироваться у наших партнеров - онлайн-стратегия MyLands. При регистрации в игре Вы получите код, который сможете активировать после регистрации на pirat.ca и получить 1000 дублонов.

Ваш код:
db0e0ad91548759ffeb9bb88bed405e1a4b3c165
 
     

Звезда и смерть Хоакина Мурьеты (Владимир Грамматиков) [1982 г., мюзикл, драма, вестерн, биография, DVDRip]

Ответить на тему
 
Автор
Сообщение

Пост 15-Окт-2016 03:15

[Q] 

somik

Легенда

-Звезда и смерть Хоакина Мурьеты-- Производство: СССР, Студия Горького
Режиссер: Владимир Грамматиков
Жанр: мюзикл, драма, вестерн, биография
Год выпуска: 1982 г.
Продолжительность: 01:22:47
Российская премьера: 10 мая 1983
Дата выхода DVD: 21 мая 2009, «Азимут»
В ролях: Андрей Харитонов, Алена Беляк, Александр Филиппенко, Эдуард Марцевич, Оксана Бочкова, Сократ Абдукадыров, Семен Чунгак, Адель Аль-Хадад, Элгуджа Гагишвили, Игорь Суровцев, Александр Яковлев, Алексей Михайлов, Юрий Лоза, Константин Кужалиев, Виктор Андриенко, Людмила Солоденко-Описание: Экранизция рок-оперы Алексея Рыбникова по мотивам пьесы в стихах Павла Грушко. Вместе с другими жителями нищей чилийской деревушки Хоакин Мурьета решает отправиться в далекую Калифорнию на поиски золота. В пути он встречает прекрасную девушку, которая становится его женой. Но счастье влюбленных оказывается недолгим.
Старатели сталкиваются со злобой и жестокостью американцев. Погибает юная подруга Хоакина — и он берется за оружие, чтобы отомстить. Однако ничто не может облегчить его страданий.-Сэмпл КиноПоиск
Качество видео: DVDRip
Контейнер: AVI
Видео кодек: DivX
Аудио кодек: AC3
Видео: 704x368 (1.91:1), 25 fps, DivX Codec 5.2.1 build 1338 ~2022 kbps avg, 0.31 bit/pixel
Аудио: 48 kHz, AC3 Dolby Digital, 3/2 (L,C,R,l,r) + LFE ch, ~384 kbps
Cубтитры: отсутствуют
Есть такие фильмы, которые глубоко и надолго западают в душу. Звезда и смерть Хоакина Мурьеты — один из немногих.
«Сколько листьев чтоб выжить,
платят земле деревья?
Мне бы только, чтоб дети не погибали во чреве…
Стоит ли жить,
когда что-то ещё не родилось?
Мне бы только, чтоб жизни смерть моя пригодилась…»
Давно, когда я была маленькой, старшая сестра привезла пластинку с записью «Звезда и смерть Хоакина Мурьеты». Запала в детскую душу, хотя и не следовало бы, рановато так сказать… Теперь в самый раз. «Любимый мой, любимый мой…», «Вот и вы, с прибытием… Как здоровьице, как песочек наш в карманы ваши ловится?.. Мразь чилийская, притопали — старатели…» Или «Как же это, как же так (песня Терезы, когда она в положении) сколько стало нас? Сколько у меня теперь рук, сердец и глаз?». Или это» Не родись мой сын, не родись… В нерождённый прах обратись…»
Всю рок — оперу люблю и знаю наизусть. Обалденная музыка, проникающая и пронзительная. Аж мурашки по телу. Блестяще. Это шедевр.
10 из 10
Общее
Полное имя : J:\Звезда и Смерть Хоакина Мурьеты\Zvezda i smertj Hoakina Muriety.1982.DVDRip.[pirat.ca].avi
Формат : AVI
Формат/Информация : Audio Video Interleave
Размер файла : 1,40 Гбайт
Продолжительность : 1 ч. 22 м.
Общий поток : 2417 Кбит/сек
Программа кодирования : VirtualDubMod 1.5.10.2 (build 2540/release)
Библиотека кодирования : VirtualDubMod build 2540/release
Видео
Идентификатор : 0
Формат : MPEG-4 Visual
Параметр BVOP формата : 1
Параметр QPel формата : Нет
Параметр GMC формата : Без точки перехода
Параметр матрицы формата : Default (H.263)
Режим смешивания : Сжатый битовый поток
Идентификатор кодека : DX50
Идентификатор кодека/Подсказка : DivX 5
Продолжительность : 1 ч. 22 м.
Битрейт : 2023 Кбит/сек
Ширина : 704 пикселя
Высота : 368 пикселей
Соотношение сторон : 1,913
Частота кадров : 25,000 кадров/сек
Цветовое пространство : YUV
Субдискретизация насыщенности : 4:2:0
Битовая глубина : 8 бит
Тип развёртки : Прогрессивная
Метод сжатия : С потерями
Бит/(Пиксели*Кадры) : 0.312
Размер потока : 1,17 Гбайт (84%)
Библиотека кодирования : DivX 5.2.1 (DrDivX 106) (UTC 2004-09-08)
Аудио
Идентификатор : 1
Формат : AC-3
Формат/Информация : Audio Coding 3
Расширение режима : CM (complete main)
Параметр Endianness формата : Big
Идентификатор кодека : 2000
Продолжительность : 1 ч. 22 м.
Вид битрейта : Постоянный
Битрейт : 384 Кбит/сек
Каналы : 6 каналов
Расположение каналов : Front: L C R, Side: L R, LFE
Частота : 48,0 КГц
Частота кадров : 31,250 кадров/сек (1536 spf)
Метод сжатия : С потерями
Размер потока : 227 Мбайт (16%)
Выравнивание : Разделение по промежуткам
Продолжительность промежутка : 40 мс. (1,00 видеокадр)
Время предзагрузки промежутка : 500 мс.
Download / Скачать

Хотите скачать бесплатно? Зарегистрируйтесь на сайте (ссылка на регистрацию). Pirat.ca - самый быстрый торрент трекер в рунете!

Как скачивать  ·   Что такое торрент  ·   Рейтинг и ограничения

Показать сообщения:    
Ответить на тему

Текущее время: Сегодня 08:10

Часовой пояс: GMT + 4



Вы не можете начинать темы
Вы не можете отвечать на сообщения
Вы не можете редактировать свои сообщения
Вы не можете удалять свои сообщения
Вы не можете голосовать в опросах
Вы не можете прикреплять файлы к сообщениям
Вы не можете скачивать файлы

▼ Вниз